Calling
紗羅マリー

BASIC

Level: 4
BPM: 155
Notes: 247

1
口口口口 |----|
口口口口 |----|
口口口口 |----|
口口口口 |----|
2
口口口口 |----|
口口口口 |----|
口口口口 |----|
口口口口 |----|
3
口口口口 |----|
口口口口 |----|
口口口口 |----|
口口口口 |----|
4
口口口口 |----|
口口口口 |----|
口①②口 |①---|
口口口口 |②---|
5
口口口口 |①---|
口①①口 |----|
口口口口 |----|
口口口口 |----|
6
口口口口 |①---|
①口口① |----|
口口口口 |----|
口口口口 |----|
7
口口口口 |①---|
口口口口 |----|
①口口① |----|
口口口口 |----|
8
口口口口 |①---|
口口口口 |----|
口②③口 |②---|
①口口① |③---|
9
口口口口 |①---|
口①①口 |----|
口口口口 |----|
口口口口 |----|
10
口口口口 |①---|
①口口① |----|
口口口口 |----|
口口口口 |----|
11
口口口口 |①---|
口口口口 |----|
①口口① |----|
口口口口 |----|
12
口口口口 |①---|
口口口③ |----|
口口口② |②---|
①口口① |③---|
13
④③②① |①---|
口口口口 |②---|
口口口口 |③---|
口口口口 |④---|
14
口口口口 |①---|
①口口口 |②---|
②口口口 |③---|
③④口口 |④---|
15
口口口口 |①---|
口口口④ |②---|
口口口③ |③---|
口口①② |④---|
16
口口口口 |①---|
口②①口 |②---|
口③④口 |③---|
口口口口 |④---|
17
口口口口 |①---|
口②①口 |②---|
口③④口 |③---|
口口口口 |④---|
18
口口④③ |①---|
口口口② |②---|
口口口① |③---|
口口口口 |④---|
19
②①口口 |①---|
③口口口 |②---|
④口口口 |③---|
口口口口 |④---|
20
口口口口 |①---|
口口口口 |②---|
口口口口 |③---|
①②③④ |④---|
21
口口口口 |①---|
口口口口 |②---|
④③②① |③---|
口口口口 |④---|
22
口口口口 |①---|
①②③④ |②---|
口口口口 |③---|
口口口口 |④---|
23
④③②① |①---|
口口口口 |②---|
口口口口 |③---|
口口口口 |④---|
24
口口口口 |①---|
①②③④ |②---|
口口口口 |③---|
口口口口 |④---|
25
口口口口 |①---|
口口口口 |②---|
④③②① |③---|
口口口口 |④---|
26
口口口口 |①---|
口口口口 |②---|
口口口口 |③---|
①②③④ |④---|
27
口口口口 |①---|
口口口口 |②---|
③④②① |③---|
口口口口 |④---|
28
口口口口 |①---|
③④②① |②---|
口口口口 |③---|
口口口口 |④---|
29
口①①口 |①---|
口口口口 |----|
口口口口 |----|
口口口口 |----|
30
口口口口 |①---|
①口口① |----|
口口口口 |----|
口口口口 |----|
31
口口口口 |①---|
口①①口 |----|
口口口口 |----|
口口口口 |----|
32
口口口口 |①---|
口口口口 |----|
①口口① |②---|
口②③口 |③---|
33
口口口口 |①---|
口口口口 |----|
口①①口 |----|
口口口口 |----|
34
口口口口 |①---|
①口口① |----|
口口口口 |----|
口口口口 |----|
35
口口口口 |①---|
口①①口 |----|
口口口口 |----|
口口口口 |----|
36
①口口① |①---|
口口口口 |----|
口口口口 |----|
口口口口 |----|
37
口①①口 |①---|
口口口口 |----|
口口口口 |----|
口口口口 |----|
38
口口口口 |①---|
口①口口 |----|
口口①口 |----|
口口口口 |----|
39
口口口口 |①---|
口口①口 |----|
口①口口 |----|
口口口口 |----|
40
口口口口 |①---|
口口口口 |----|
②口口② |②---|
口①①口 |----|
41
口口口口 |①---|
口口口口 |----|
口①①口 |----|
口口口口 |----|
42
口口口口 |①---|
①口口① |----|
口口口口 |----|
口口口口 |----|
43
口①①口 |①---|
口口口口 |----|
口口口口 |----|
口口口口 |----|
44
①口口① |①---|
②口口② |----|
口口口口 |②---|
口口口口 |----|
45
口口口口 |①---|
口③口口 |----|
口口②口 |②---|
口①①口 |③---|
46
口①①口 |①---|
口口②口 |----|
口③口口 |②---|
口口口口 |③---|
47
口口口口 |①---|
口口口口 |----|
①口口② |②---|
①口口② |----|
48
口口口口 |①---|
口①①口 |----|
口②②口 |②---|
口口口口 |----|
49
口口口口 |①---|
口③口口 |----|
口口②口 |②---|
口①①口 |③---|
50
口①①口 |①---|
口口②口 |----|
口③口口 |②---|
口口口口 |③---|
51
口口口口 |①---|
口口口口 |----|
②口口② |②---|
口①①口 |----|
52
口②③口 |①---|
①口口① |----|
口口口口 |②---|
口口口口 |③---|
53
口口口口 |①---|
口口口① |----|
口②②口 |②---|
口口口口 |----|
54
口口口口 |①---|
口②②口 |----|
①口口口 |②---|
口口口口 |----|
55
口口口口 |①---|
①口口口 |----|
口②②口 |②---|
口口口口 |----|
56
口口口口 |①---|
口口口口 |----|
口③②① |②---|
口口口口 |③---|
57
口②②口 |①---|
①口口口 |----|
口口口口 |②---|
口口口口 |----|
58
口口口① |①---|
口②②口 |----|
口口口口 |②---|
口口口口 |----|
59
口②②口 |①---|
口口口① |----|
口口口口 |②---|
口口口口 |----|
60
口口口口 |①---|
口①①③ |----|
口口口② |②---|
口口口口 |③---|
61
④③②① |①---|
口口口口 |②---|
口口口口 |③---|
口口口口 |④---|
62
口口口口 |①---|
①口口口 |②---|
②口口口 |③---|
③④口口 |④---|
63
口口口口 |①---|
口口口④ |②---|
口口口③ |③---|
口口①② |④---|
64
口口口口 |①---|
口②①口 |②---|
口③④口 |③---|
口口口口 |④---|
65
口口口口 |①---|
口②①口 |②---|
口③④口 |③---|
口口口口 |④---|
66
口口④③ |①---|
口口口② |②---|
口口口① |③---|
口口口口 |④---|
67
②①口口 |①---|
③口口口 |②---|
④口口口 |③---|
口口口口 |④---|
68
口口口口 |①---|
口口口口 |②---|
口口口口 |③---|
①②③④ |④---|
69
口口口口 |①---|
口口口口 |②---|
④③②① |③---|
口口口口 |④---|
70
口口口口 |①---|
①②③④ |②---|
口口口口 |③---|
口口口口 |④---|
71
④③②① |①---|
口口口口 |②---|
口口口口 |③---|
口口口口 |④---|
72
口口口口 |①---|
①②③④ |②---|
口口口口 |③---|
口口口口 |④---|
73
口口口口 |①---|
口口口口 |②---|
④③②① |③---|
口口口口 |④---|
74
口口口口 |①---|
口口口口 |②---|
口口口口 |③---|
①②③④ |④---|
75
口口口口 |①---|
口口口口 |②---|
③④②① |③---|
口口口口 |④---|
76
口口口口 |①---|
③④②① |②---|
口口口口 |③---|
口口口口 |④---|
77
口①①口 |①---|
口口口口 |----|
口口口口 |----|
口口口口 |----|


不確定度: 0

最終更新:2013年05月27日 20:07