15 Doors
moumoon

BASIC

Level: 3
BPM: 163
Notes: 192

1
口口口口 |----|
口口口口 |----|
口口口口 |----|
口口口口 |----|
2
口口口口 |①---|
口①②口 |----|
口口口口 |②---|
口口口口 |----|
3
口口口口 |①---|
口口口口 |----|
口①②口 |②---|
口口口口 |----|
4
口口口口 |①---|
②口口② |----|
①口口① |----|
口口口口 |--②-|
5
口口口口 |----|
口口口口 |----|
口口口口 |----|
口口口口 |----|
6
口口口口 |①---|
口口口口 |----|
口①②口 |②---|
口口口口 |----|
7
口口口口 |①---|
口①②口 |----|
口口口口 |②---|
口口口口 |----|
8
口口口口 |①---|
②口口② |----|
①口口① |----|
口口口口 |--②-|
9
口口口口 |----|
口口口口 |----|
口口口口 |----|
口口口口 |----|
10
口口口口 |①---|
②①①② |----|
口③口口 |②---|
口口口口 |--③-|
11
口口口口 |----|
口口口口 |①---|
口口口口 |----|
口口①口 |----|
12
口口口口 |①---|
口口口口 |----|
口②②口 |----|
口①①口 |--②-|
13
口口口口 |----|
口口口口 |----|
口口口口 |----|
口口口口 |----|
14
口口口口 |①---|
②①①② |----|
口③口口 |②---|
口口口口 |--③-|
15
口口口口 |----|
口口口口 |①---|
口口口口 |----|
口口①口 |----|
16
口口口口 |①---|
口②②口 |----|
口口口口 |----|
口①①口 |--②-|
17
口口口口 |----|
口口口口 |----|
口口口口 |----|
口口口口 |----|
18
口口口口 |①---|
①②③④ |②---|
口口口口 |③---|
口口口口 |④---|
19
口口口口 |①---|
口口口口 |②---|
④③②① |③---|
口口口口 |④---|
20
口口口口 |①---|
①②③④ |②---|
口口口口 |③---|
口口口口 |④---|
21
口口口口 |①---|
口口口口 |②---|
④③②① |③---|
口口口口 |④---|
22
口口口口 |①---|
口口口口 |②---|
④③②① |③---|
口口口口 |④---|
23
口口口口 |①---|
①②③④ |②---|
口口口口 |③---|
口口口口 |④---|
24
口口口口 |①---|
口口口口 |②---|
④③②① |③---|
口口口口 |④---|
25
口口口口 |①---|
①②③④ |②---|
口口口口 |③---|
口口口口 |④---|
26
口口口口 |①---|
①③口口 |②---|
②④口口 |③---|
口口口口 |④---|
27
口口口口 |①---|
口口①③ |②---|
口口②④ |③---|
口口口口 |④---|
28
口口口口 |①---|
口④②口 |②---|
口③①口 |③---|
口口口口 |④---|
29
口口口口 |①---|
口④①口 |②---|
口③②口 |③---|
口口口口 |④---|
30
口口口口 |①---|
①③口口 |②---|
②④口口 |③---|
口口口口 |④---|
31
口口口口 |①---|
口口①③ |②---|
口口②④ |③---|
口口口口 |④---|
32
口口口口 |①---|
口④②口 |②---|
口③①口 |③---|
口口口口 |④---|
33
口口口口 |①---|
①口口口 |②---|
②③④口 |③---|
口口口口 |④---|
34
口①①口 |①---|
口口口口 |----|
口口口口 |----|
口口口口 |----|
35
口口口口 |①---|
口口口口 |----|
口①②口 |②---|
口口口口 |----|
36
口口口口 |①---|
口口口口 |----|
②口口② |②---|
①口口① |----|
37
②口口② |①---|
①口口① |----|
口口口口 |②---|
口口口口 |----|
38
口口口口 |①---|
口①①口 |----|
口口口口 |----|
口口口口 |----|
39
口口口口 |①---|
口口口口 |----|
口①②口 |②---|
口口口口 |----|
40
口口口口 |①---|
口口口口 |----|
②口口② |②---|
①口口① |----|
41
①口口① |①---|
口口口口 |----|
口②②口 |②---|
口口口口 |----|
42
口口口口 |①---|
①①①① |----|
③口口③ |②---|
口②②口 |--③-|
43
口口口口 |----|
口口口口 |----|
口口口口 |----|
口口口口 |----|
44
口口口口 |①---|
口口口口 |----|
①②口口 |②---|
口口口口 |----|
45
口口口口 |①---|
口口口口 |----|
口口①② |②---|
口口口口 |----|
46
口口口口 |①---|
①①①① |----|
③口口③ |②---|
口②②口 |--③-|
47
口口口口 |----|
口口口口 |----|
口口口口 |----|
口口口口 |----|
48
口口口口 |①---|
口口口口 |----|
①②口口 |②---|
口口口口 |----|
49
口口口口 |①---|
口口口口 |----|
口口①② |②---|
口口口口 |----|
50
②②②② |①---|
①①①① |②---|
④③③④ |③---|
口口口口 |--④-|
51
口口口口 |----|
口口口口 |----|
口口口口 |----|
口口口口 |----|
52
口口口口 |①---|
口口口口 |----|
①②口口 |②---|
口口口口 |----|
53
口口口口 |①---|
口口口口 |----|
口口①② |②---|
口口口口 |----|
54
口口口口 |①---|
口①①口 |----|
口口口口 |----|
口口口口 |----|
55
口口口口 |①---|
口口口口 |----|
口①①口 |----|
口口口口 |----|
56
口口口口 |①---|
口口口口 |----|
①②口口 |②---|
口口口口 |----|
57
口口口口 |①---|
口口口口 |----|
口口①② |②---|
口口口口 |----|
58
口口口口 |①---|
②①①② |----|
口③口口 |②---|
口口口口 |--③-|
59
口口口口 |----|
口口口口 |①---|
口口口口 |----|
口口①口 |----|
60
口口口口 |----|
口①②口 |①---|
口③③口 |②---|
口口口口 |--③-|
61
口口口口 |----|
口口口口 |----|
口口口口 |----|
口口口口 |----|
62
口口口口 |①---|
②①①② |----|
口③口口 |②---|
口口口口 |--③-|
63
口口口口 |----|
口口口口 |①---|
口口口口 |----|
口口①口 |----|
64
口口口口 |----|
口①②口 |①---|
口③③口 |②---|
口口口口 |--③-|


不確定度: 0

最終更新:2013年05月27日 20:02