15 Doors
moumoon

ADVANCED

Level: 6
BPM: 163
Notes: 362

1
口口口口 |----|
口口口口 |----|
口口口口 |----|
口口口口 |----|
2
口口口口 |①-②-|
①②③口 |③---|
口⑥⑤④ |④-⑤-|
口⑦⑦口 |⑥-⑦-|
3
口口口口 |----|
①口口口 |①---|
口口口② |②---|
③口口口 |③---|
4
口口口口 |①---|
口③③口 |②-③-|
口口②⑤ |--④-|
④①①⑤ |--⑤-|
5
口口口口 |----|
口②②口 |①-②-|
④①口③ |--③-|
口口口口 |④---|
6
口⑦⑦口 |①-②-|
①②③口 |③---|
口⑥⑤④ |④-⑤-|
口口口口 |⑥-⑦-|
7
口口口口 |----|
①口口口 |①---|
口口口② |②---|
③口口口 |③---|
8
口口口口 |①---|
口③③口 |②-③-|
口口②⑤ |--④-|
④①口⑤ |--⑤-|
9
口口口口 |----|
①②口口 |①-②-|
口③④⑤ |③-④-|
口口口口 |⑤---|
10
口②③口 |①---|
口口口口 |----|
口口口口 |②-③-|
④①①④ |--④-|
11
口口口口 |--①-|
口①①口 |②---|
④②②③ |③---|
口口口口 |④---|
12
口口口口 |①---|
口③③口 |②-③-|
口口②⑤ |--④-|
④①①⑤ |--⑤-|
13
口口口口 |----|
④②②③ |①-②-|
口①口口 |--③-|
口口口口 |④---|
14
口②③口 |①---|
口口口口 |----|
口口口口 |②-③-|
④①①④ |--④-|
15
口口口口 |--①-|
口①①口 |②---|
③②②④ |③---|
口口口口 |④---|
16
口口口口 |①---|
口③③口 |②-③-|
口口②⑤ |--④-|
④①①⑤ |--⑤-|
17
口口口口 |----|
口②③口 |①-②-|
口①口口 |③-④-|
口⑤④口 |⑤---|
18
①④①④ |①-②-|
③⑥③⑥ |③---|
②⑤②⑤ |④-⑤-|
口口口口 |⑥---|
19
口口⑥口 |①-②-|
口口口口 |③-④-|
①⑤②口 |⑤---|
③口④口 |⑥---|
20
口口口口 |①---|
①①口口 |②-③-|
口口③口 |----|
口口②口 |----|
21
口口口口 |----|
口口口口 |----|
口口口口 |----|
口口口口 |----|
22
①④①④ |①-②-|
③⑥③⑥ |③---|
②⑤②⑤ |④-⑤-|
口口口口 |⑥---|
23
口口⑥口 |①-②-|
口口口口 |③-④-|
①⑤②口 |⑤---|
③口④口 |⑥---|
24
口口口口 |①---|
①①口② |②-③-|
口口口口 |----|
口口口③ |----|
25
口口口口 |----|
口口口口 |----|
口口口口 |----|
口口口口 |----|
26
①④①④ |①-②-|
③⑥③⑥ |③---|
②⑤②⑤ |④-⑤-|
口口口口 |⑥---|
27
口口⑥口 |①-②-|
口口口口 |③-④-|
①⑤②口 |⑤---|
③口④口 |⑥---|
28
口口口口 |①---|
①①口口 |②-③-|
口口③口 |----|
口口②口 |----|
29
口口口口 |----|
口口口口 |----|
口口口口 |----|
口口口口 |----|
30
①④①④ |①-②-|
③⑥③⑥ |③---|
②⑤②⑤ |④-⑤-|
口口口口 |⑥---|
31
口口⑥口 |①-②-|
口口口口 |③-④-|
①⑤②口 |⑤---|
③口④口 |⑥---|
32
口口口口 |①---|
①①口② |②-③-|
口口口口 |----|
口口口③ |----|
33
口口口口 |----|
口口口口 |----|
口口口口 |----|
口口口口 |----|
34
口③④口 |①---|
口②口口 |----|
口口口口 |--②-|
①口口① |③-④-|
35
口口口口 |①-②-|
①口口② |③-④-|
③⑤⑤④ |⑤---|
口⑥⑥口 |⑥---|
36
口口口口 |①---|
口③④口 |--②-|
①②口口 |③---|
口口口① |--④-|
37
②口①② |①---|
口口口口 |----|
口口口口 |②---|
口口口口 |----|
38
口③④口 |①---|
口①②口 |----|
口口①口 |--②-|
口口口口 |③-④-|
39
口口口口 |①-②-|
①口口② |③-④-|
③⑤⑤④ |⑤---|
口⑥⑥口 |⑥---|
40
口④④口 |①---|
口③口口 |--②-|
①②口口 |③---|
口口口① |--④-|
41
口口口口 |①---|
口②③口 |--②-|
①③②① |③---|
口口口口 |----|
42
口口口口 |①---|
①口口① |----|
①口口①
口口口口

口④④口
口口③口
⑤②口⑤ |②-③-|
口口口口 |④-⑤-|
43
①口口① |----|
口口口口 |①---|
口口口口 |----|
口口口口 |----|
44
①口口口 |----|
④④②口 |①---|
口口③口 |②-③-|
口口口口 |--④-|
45
口口⑥口 |--①-|
口⑤②口 |②-③-|
口口④口 |--④-|
③③①口 |⑤-⑥-|
46
口口口口 |①---|
①口口① |----|
①口口①
口口口口

口④④口
口口③口
⑤②口⑤ |②-③-|
口口口口 |④-⑤-|
47
①口口① |----|
口口口口 |①---|
口口口口 |----|
口口口口 |----|
48
①口口口 |----|
④④②口 |①---|
口口③口 |②-③-|
口口口口 |--④-|
49
⑤口⑥口 |--①-|
口口②口 |②-③-|
口口口口 |--④-|
③③①④ |⑤-⑥-|
50
口口口口 |①---|
①②②① |②---|
①②②①
口口口口

⑤口口⑤
口口口口
⑥口口⑥ |③-④-|
口③④口 |⑤-⑥-|
51
口口口口 |----|
①口口① |①---|
口口口口 |----|
口口口口 |----|
52
①口口口 |----|
④④②口 |①---|
口口③口 |②-③-|
口口口口 |--④-|
53
口口口口 |--①-|
⑤口②⑥ |②-③-|
口口④口 |--④-|
③③①口 |⑤-⑥-|
54
口①①口 |①---|
口口口口 |----|
口口口口 |----|
口口口口 |----|
55
口口口口 |----|
口口口口 |----|
口口口口 |----|
口口口口 |----|
56
①口口口 |----|
④④②口 |①---|
口口③口 |②-③-|
口口口口 |--④-|
57
口④⑤口 |--①-|
⑥口②⑥ |②-③-|
口口口口 |--④-|
③③①口 |⑤-⑥-|
58
口②③口 |①---|
口口口口 |----|
口①①口 |②-③-|
④口口④ |--④-|
59
口口口口 |--①-|
口①①口 |②---|
口②②口 |----|
口口口口 |----|
60
口口口口 |----|
①③③① |①---|
口③③口 |②---|
②口口② |--③-|
61
口口口口 |----|
口口口口 |----|
口口口口 |----|
口口口口 |----|
62
口②③口 |①---|
口口口口 |----|
①口口① |②-③-|
④口口④ |--④-|
63
口口口口 |--①-|
口①①口 |②---|
口②②口 |----|
口口口口 |----|
64
口口口口 |----|
①③③① |①---|
口③③口 |②---|
②口口② |--③-|
65
口口口口 |----|
③口口④ |----|
①口口② |①-②-|
口口口口 |③-④-|


不確定度: 0

最終更新:2013年05月27日 19:59