PRIME TIME
capsule

BASIC

Level: 3
BPM: 128
Notes: 244

1
口口口口 |----|
口口口口 |----|
口口口口 |----|
口口口口 |----|
2
③口口口 |①---|
②口口口 |②---|
④口口口 |③---|
①口口口 |④---|
3
口口口③ |①---|
口口口② |②---|
口口口④ |③---|
口口口① |④---|
4
口③口口 |①---|
口②口口 |②---|
口口④口 |③---|
口①口口 |④---|
5
口口③口 |①---|
口口②口 |②---|
口④④口 |③---|
口口①口 |④---|
6
口②口口 |①---|
①口口口 |----|
口口口口 |②---|
口口口口 |----|
7
口口①③ |①---|
口口口② |----|
口口口口 |②---|
口口口口 |③---|
8
口②①口 |①---|
口口口口 |----|
口口口口 |②---|
口口口口 |----|
9
②③口口 |①---|
①口口口 |----|
口口口口 |②---|
口口口口 |③---|
10
口口②口 |①---|
口口口① |----|
口口口口 |②---|
口口口口 |----|
11
③①口口 |①---|
②口口口 |----|
口口口口 |②---|
口口口口 |③---|
12
口①②口 |①---|
口口口口 |----|
口口口口 |②---|
口口口口 |----|
13
口口③② |①---|
口口口① |----|
口口口口 |②---|
口口口口 |③---|
14
口口口口 |①---|
口①①口 |----|
口②③口 |②---|
口口口口 |③---|
15
口口口口 |①---|
口口口口 |----|
口口口口 |②---|
②①①③ |③---|
16
口口口口 |①---|
口②③口 |----|
口①①口 |②---|
口口口口 |③---|
17
口①①口 |①---|
②口口③ |----|
口口口口 |②---|
口口口口 |③---|
18
口口口口 |①---|
口①①口 |----|
②口口③ |②---|
口口口口 |③---|
19
口口口口 |①---|
②口口③ |----|
口口口口 |②---|
口①①口 |③---|
20
口①①口 |①---|
口②③口 |----|
口口口口 |②---|
口口口口 |③---|
21
口口口口 |①---|
口口口口 |----|
口①①口 |----|
口口口口 |----|
22
口②口口 |①---|
①口口口 |----|
口口口口 |②---|
口口口口 |----|
23
口口①③ |①---|
口口口② |----|
口口口口 |②---|
口口口口 |③---|
24
口②①口 |①---|
口口口口 |----|
口口口口 |②---|
口口口口 |----|
25
②③口口 |①---|
①口口口 |----|
口口口口 |②---|
口口口口 |③---|
26
口口②口 |①---|
口口口① |----|
口口口口 |②---|
口口口口 |----|
27
③①口口 |①---|
②口口口 |----|
口口口口 |②---|
口口口口 |③---|
28
口①②口 |①---|
口口口口 |----|
口口口口 |②---|
口口口口 |----|
29
③②②③ |①---|
口口口① |----|
口口口口 |②---|
口口口口 |③---|
30
口口口口 |①---|
口①①口 |----|
口②③口 |②---|
口口口口 |③---|
31
口口口口 |①---|
口口口口 |----|
口口口口 |②---|
②①①③ |③---|
32
口口口口 |①---|
口②③口 |----|
口①①口 |②---|
口口口口 |③---|
33
口①①口 |①---|
②口口③ |----|
口口口口 |②---|
口口口口 |③---|
34
口口口口 |①---|
口①①口 |----|
②口口③ |②---|
口口口口 |③---|
35
口口口口 |①---|
②口口③ |----|
口口口口 |②---|
口①①口 |③---|
36
口①①口 |①---|
口②③口 |----|
口口口口 |②---|
口口口口 |③---|
37
口口口口 |①---|
②口口③ |----|
口①①口 |②---|
口口口口 |③---|
38
口①口② |①---|
③口口④ |②---|
口口口口 |③---|
口口口口 |④---|
39
口口口口 |①---|
口口口口 |②---|
①口②口 |③---|
口③④口 |④---|
40
口口口口 |①---|
口口口口 |②---|
口口④③ |③---|
②口口① |④---|
41
④口口③ |①---|
②口①口 |②---|
口口口口 |③---|
口口口口 |④---|
42
口①①口 |①---|
②口②口 |②---|
口③口③ |③---|
④口口④ |④---|
43
口①①口 |①---|
口②口② |②---|
③口③口 |③---|
④口口④ |④---|
44
①③⑤⑦ |①-②-|
②④⑥⑧ |③-④-|
口口口口 |⑤-⑥-|
口口口口 |⑦-⑧-|
45
口口口口 |①-②-|
口口口口 |③-④-|
①②③④ |⑤---|
⑤⑥⑥口 |⑥---|
46
口口口口 |①---|
②口口口 |----|
口①①③ |②---|
口口口口 |③---|
47
②口口① |①---|
③口口口 |----|
口口口口 |②---|
口口口口 |③---|
48
口口口口 |①---|
②口口③ |----|
口口口口 |②---|
口①①口 |③---|
49
口②口① |①---|
口③口口 |----|
口口口口 |②---|
口口口口 |③---|
50
口口口口 |①---|
③口口口 |----|
口①①② |②---|
口口口口 |③---|
51
口口②口 |①---|
口口③① |----|
口口口口 |②---|
口口口口 |③---|
52
口口口口 |①---|
③口口口 |----|
②口口口 |②---|
口①①口 |③---|
53
口①②口 |①---|
口口口③ |②---|
口口口④ |③---|
口口口口 |④---|
54
口口口口 |①---|
②口口口 |----|
口①①③ |②---|
口口口口 |③---|
55
②口口① |①---|
③口口口 |----|
口口口口 |②---|
口口口口 |③---|
56
口口口口 |①---|
②口口③ |----|
口口口口 |②---|
口①①口 |③---|
57
口②口① |①---|
口③口口 |----|
口口口口 |②---|
口口口口 |③---|
58
口口口口 |①---|
③口口口 |----|
口①①② |②---|
口口口口 |③---|
59
口口②口 |①---|
口口③① |----|
口口口口 |②---|
口口口口 |③---|
60
口口口口 |①---|
③口口口 |----|
②口口口 |②---|
口①①口 |③---|
61
口①②口 |①---|
口口口③ |②---|
口口口④ |③---|
口口口口 |④---|
62
口口口口 |①---|
口①③口 |②---|
口②④口 |③---|
口口口口 |④---|
63
口口口① |①---|
③口口② |②---|
④口口口 |③---|
口口口口 |④---|
64
口③口口 |①---|
口④口口 |②---|
口口①口 |③---|
口口②口 |④---|
65
口口①口 |①---|
口口②口 |②---|
口③③口 |③---|
口④④口 |④---|


不確定度: 0

最終更新:2013年05月27日 19:42