切ないほど
ゴールデンボンバー

EXTREME

Level: 9
BPM: 139
Notes: 699

1
口口口口 |----|
口口口口 |----|
口口口口 |----|
口口口口 |----|
2
③口口④ |①---|
②①口口 |②---|
口口口口 |③---|
④口口③ |④---|
3
口②③④ |①-②③|
口①⑤口 |--④⑤|
口口①口
口③②口

⑦⑨⑨口
口口口口
口⑥口口 |⑥-⑦⑧|
口口口⑧ |--⑨-|
4
口口口口 |①-②-|
口④②④ |③-④-|
③②③④
③①①口

⑤口⑤⑥
⑤口口口
口口口口 |⑤---|
⑦口口口 |--⑥⑦|
5
口②③口 |①-②③|
口①口口 |--④-|
④口①④
口③②口

⑤口口⑤
⑦⑥⑥⑦
口口口口 |⑤-⑥⑦|
口⑧⑧口 |--⑧-|
6
③③③③ |①-②③|
④口口口 |----|
①口口② |----|
①口口② |④---|
7
④口口③ |①---|
口⑦⑥⑤ |②③-④|
口口口② |--⑤-|
①①①① |⑥-⑦-|
8
④口口③ |①---|
口⑦⑥⑤ |②③-④|
口口口② |--⑤-|
①①口口 |⑥-⑦-|
9
④口口③ |①---|
口⑦⑥⑤ |②③-④|
口口口② |--⑤-|
①①①① |⑥-⑦-|
10
③①口② |①-②③|
①口口口 |④⑤⑥⑦--|
口⑥④口
口⑦⑤口

⑮口⑭⑭
⑪口口⑧
⑫口口⑨ |⑧⑨⑩⑪⑫⑬|
⑬口口⑩ |⑭-⑮-|
11
口口⑥口 |①-②③|
口⑤口② |④⑤-⑥|
口④③⑥
口①①口

口口口⑦
⑨口⑦⑧
口⑨口口 |--⑦-|
口口口⑧ |⑧-⑨-|
12
②③口口 |①-②③|
口⑥④口 |④⑤-⑥|
口口口⑤
⑥①①口

⑨口⑦口
口口口⑦
口⑨⑧口 |--⑦-|
口口口⑧ |⑧-⑨-|
13
口④口⑥ |①-②③|
③口⑤口 |④⑤-⑥|
②口⑥口
口①①口

口⑨⑦口
口口口⑦
⑨口口口 |--⑦-|
口口⑧⑧ |⑧-⑨-|
14
①口口口 |①-②③|
④⑤⑥⑦ |④⑤⑥⑦|
口③口②
口口口口

⑭⑫⑩⑧
口口口口
口口口口 |⑧⑨⑩⑪|
⑬⑪⑨口 |⑫⑬⑭-|
15
口口⑥口 |①-②③|
⑤口③② |④⑤-⑥|
口④⑥①
口口口①

⑦口口⑨
口⑦⑨口
口口口⑧ |--⑦-|
口口口⑧ |⑧-⑨-|
16
⑥④⑤口 |①-②③|
③⑥口口 |④⑤-⑥|
①②口口
①口口口

口⑨口⑦
⑨口口⑦
口口口口 |--⑦-|
⑧⑧口口 |⑧-⑨-|
17
⑤口②⑥ |①-②③|
口④③⑥ |④⑤-⑥|
口口口①
口口口①

口口⑨口
⑦口⑨口
口⑦口⑧ |--⑦-|
口口口⑧ |⑧-⑨-|
18
②②④④ |①--②|
口⑤⑥⑦ |--③-|
口⑧⑨⑩ |④--⑤⑥⑦|
①①③③ |⑧⑨⑩---|
19
口口口口 |--①-|
①②口④ |②-③④|
口口口口
口口口③

口口⑤口
⑧口口口
口⑥口口 |--⑤-|
⑦口口口 |⑥-⑦⑧|
20
口①口口 |--①-|
口口⑤④ |②-③④|
口⑥②口 |--⑤-|
口口⑦③ |⑥⑦--|
21
口口口口 |--①-|
①②口④ |②-③④|
口口口口
口口口③

口口⑤口
⑧口口口
口⑥口口 |--⑤-|
⑦口口口 |⑥-⑦⑧|
22
口口口口 |--①-|
口口口口 |----|
口口口口 |----|
口①①口 |----|
23
口口口口 |--①-|
④口②① |②-③④|
口口口口
③口口口

口⑤口口
口口口⑧
口口⑥口 |--⑤-|
口口口⑦ |⑥-⑦⑧|
24
口口①口 |--①-|
④⑤口口 |②-③④|
口②⑥口 |--⑤-|
③⑦口口 |⑥⑦--|
25
口口口口 |--①-|
④口②① |②-③④|
口口口口
③口口口

口⑤口口
口口口⑧
口口⑥口 |--⑤-|
口口口⑦ |⑥-⑦⑧|
26
口口口口 |--①-|
口口口口 |----|
口口口口
口①①口

口口口口
口口口口
口口口口 |----|
②口②口 |--②-|
27
②③口③ |①--②|
②口②① |--③-|
口①口①
口口口口

口口⑤口
口口口⑤
口口⑥口 |④--⑤|
④口④⑥ |--⑥-|
28
①③③② |①--②|
口口口口 |--③-|
口口口口
口①②口

口口口口
口口口口
口口口⑤ |④---|
④⑤口④ |--⑤-|
29
①口口口 |①---|
②口①口 |--②-|
②口②口
口口口口

口④④③
口③⑤③
口⑤口口 |③--④|
口口口口 |--⑤-|
30
①口口② |①--②|
口口口口 |--③-|
口口口口
③①②③

口④④口
口口口口
口口口口 |④---|
口⑤⑤口 |--⑤-|
31
①③②① |①-②③|
⑦口⑤⑤ |--④-|
⑦②③④ |⑤--⑥|
⑥⑥口④ |--⑦-|
32
⑦③②④ |①-②③|
口④⑥④ |--④-|
⑤②③① |⑤---|
⑤口⑤① |--⑥⑦|
33
⑥③①⑥ |①-②-|
③口口① |③-④-|
口④②口 |⑤---|
④⑤⑤② |⑥---|
34
②口口③ |①---|
口①①口 |----|
①口口① |②---|
③口口② |③---|
35
口②③④ |①-②③|
口①⑤口 |--④⑤|
口口①口
口③②口

⑦⑨⑨口
口口口口
口⑥口口 |⑥-⑦⑧|
口口口⑧ |--⑨-|
36
口口口口 |①-②-|
口④②④ |③-④-|
③②③④
③①①口

⑤口⑤⑥
⑤口口口
口口口口 |⑤---|
⑦口口口 |--⑥⑦|
37
口②③口 |①-②③|
口①口口 |--④-|
④口①④
口③②口

⑤口口⑤
⑦⑥⑥⑦
口口口口 |⑤-⑥⑦|
口⑧⑧口 |--⑧-|
38
③③③③ |①-②③|
口口口口 |----|
①口口②
①口口②

口口⑥口
口⑦④④
口口口口 |④---|
⑤⑤口口 |⑤-⑥⑦|
39
②②口③ |①-②-|
口口口③ |③-④⑤|
⑤口①口
⑤口④④

口⑦⑦口
⑥口口口
口口口⑥ |--⑥-|
口口口口 |--⑦-|
40
⑤口口⑤ |①-②-|
口①①口 |③-④⑤|
口②②口
④③③④

口口口口
⑥⑧⑦⑥
⑥⑦⑧⑥ |--⑥-|
口口口口 |--⑦⑧|
41
⑤口①② |①---|
口④③口 |--②-|
口③④口 |③-④-|
②①口⑤ |⑤---|
42
口口口④ |①-②-|
口口口② |③-④-|
口口③口
口口①口

⑧⑧口口
口⑤⑤口
口口口口 |⑤-⑥⑦|
⑦⑨⑥⑩ |⑧-⑨⑩|
43
口口①① |①-②③|
③②口口 |--④⑤|
口口②③
⑤口④口

⑥⑥口⑨
口⑨⑦⑧
⑧⑦口口 |⑥-⑦⑧|
口口口口 |--⑨-|
44
口口口口 |①-②-|
①口④口 |③-④-|
④③①②
④②③③

⑤⑤口口
口口口⑤
口口口口 |⑤---|
口⑥口⑦ |--⑥⑦|
45
口口①① |①-②③|
③②口口 |--④-|
口口②③
④口④口

⑤⑤⑧⑥
口口口⑧
⑦⑦口口 |⑤-⑥⑦|
口口口口 |--⑧-|
46
口口口口 |①-②③|
口口③口 |----|
口口①③
②②口①

口口④④
口⑥口口
口口口口 |④---|
⑤⑤口口 |⑤-⑥-|
47
②②口③ |①-②-|
口口口③ |③④-⑤|
④④①口
口口⑤⑤

口口口口
⑥⑧口口
口口⑦⑥ |--⑥-|
口口口口 |--⑦⑧|
48
⑤②①⑤ |①-②-|
口口①口 |③-④⑤|
口②口口
④③③④

口口口口
⑥⑧⑦⑥
⑥⑦⑧⑥ |--⑥-|
口口口口 |--⑦⑧|
49
⑤口①② |①---|
口④③口 |--②-|
口③④口 |③-④-|
②①口⑤ |⑤---|
50
④⑤⑤④ |①-②-|
②口口② |③-④-|
⑤③③⑤ |⑤---|
⑥①①⑥ |⑥---|
51
口口⑥口 |①-②③|
口⑤口② |④⑤-⑥|
口④③⑥
口①①口

口口口⑦
⑨口⑦⑧
口⑨口口 |--⑦-|
口口口⑧ |⑧-⑨-|
52
②③口口 |①-②③|
口⑥④口 |④⑤-⑥|
口口口⑤
⑥①①口

⑨口⑦口
口口口⑦
口⑨⑧口 |--⑦-|
口口口⑧ |⑧-⑨-|
53
口④口⑥ |①-②③|
③口⑤口 |④⑤-⑥|
②口⑥口
口①①口

口⑨⑦口
口口口⑦
⑨口口口 |--⑦-|
口口⑧⑧ |⑧-⑨-|
54
①口口口 |①-②③|
④⑤⑥⑦ |④⑤⑥⑦|
口③口②
口口口口

⑭⑫⑩⑧
口口口口
口口口口 |⑧⑨⑩⑪|
⑬⑪⑨口 |⑫⑬⑭-|
55
口口⑥口 |①-②③|
⑤口③② |④⑤-⑥|
口④⑥①
口口口①

⑦口口⑨
口⑦⑨口
口口口⑧ |--⑦-|
口口口⑧ |⑧-⑨-|
56
⑥④⑤口 |①-②③|
③⑥口口 |④⑤-⑥|
①②口口
①口口口

口⑨口⑦
⑨口口⑦
口口口口 |--⑦-|
⑧⑧口口 |⑧-⑨-|
57
⑤口②⑥ |①-②③|
口④③⑥ |④⑤-⑥|
口口口①
口口口①

口口⑨口
⑦口⑨口
口⑦口⑧ |--⑦-|
口口口⑧ |⑧-⑨-|
58
①口口② |①②③④|
⑤③口⑥ |⑤⑥⑦⑧|
口⑦④口
口口⑧口

⑬⑨口⑯
口⑮⑫口
口口口⑩ |⑨⑩⑪⑫|
⑪口口⑭ |⑬⑭⑮⑯|


不確定度: 0

最終更新:2013年10月17日 15:55