君の元へ
久保田祥平

BASIC

Level: 3
BPM: 180
Notes: 166

1
口口口口 |----|
口口口口 |----|
口口口口 |----|
口口口口 |----|
2
口口口口 |----|
口口口口 |----|
口口口口 |----|
口口口口 |----|
3
口口口口 |①---|
口口口口 |----|
口口口口 |②---|
口②①口 |----|
4
口口③口 |①---|
口口②口 |②---|
口口①口 |③---|
口口口口 |----|
5
口①②口 |①---|
口口口口 |----|
口口口口 |②---|
口口口口 |----|
6
口口口口 |①---|
口①口口 |②---|
口②口口 |③---|
口③口口 |----|
7
口口口口 |①---|
口口口口 |----|
口口口口 |②---|
口②①口 |----|
8
口③口口 |①---|
口口②口 |②---|
口①口口 |③---|
口口口口 |----|
9
①口口① |①---|
口②②口 |----|
口口口口 |②---|
口口口口 |----|
10
口①①口 |①---|
口口口口 |----|
口口口口 |----|
口口口口 |----|
11
口口口口 |①---|
口口口口 |----|
口口口口 |②---|
口①②口 |----|
12
口③口口 |①---|
口②口口 |②---|
口①口口 |③---|
口口口口 |----|
13
口②①口 |①---|
口口口口 |----|
口口口口 |②---|
口口口口 |----|
14
口口口口 |①---|
口口①口 |②---|
口口②口 |③---|
口口③口 |----|
15
口口口口 |①---|
口口口口 |----|
口口口口 |②---|
口①②口 |----|
16
口口③口 |①---|
口②口口 |②---|
口口①口 |③---|
口口口口 |----|
17
①口口① |①---|
口②②口 |----|
口口口口 |②---|
口口口口 |----|
18
口①①口 |①---|
口口口口 |----|
口口口口 |----|
口口口口 |----|
19
口口口口 |①---|
口②口口 |----|
口口口口 |②---|
口①口口 |----|
20
口口口口 |①---|
口口②口 |----|
口口口口 |②---|
口口①口 |----|
21
口口口口 |①---|
口②②口 |----|
口口口口 |②---|
口①①口 |----|
22
口②①口 |①---|
口口口口 |----|
口口口口 |②---|
口口口口 |----|
23
口口口口 |①---|
口口②口 |----|
口口口口 |②---|
口口①口 |----|
24
口口口口 |①---|
口②口口 |----|
口口口口 |②---|
口①口口 |----|
25
口口口口 |①---|
口口口口 |----|
口口口口 |----|
口①①口 |----|
26
口口口口 |①---|
口①①口 |----|
口口口口 |----|
口口口口 |----|
27
口口口口 |①---|
口口口口 |----|
口②①口 |②---|
口口口口 |----|
28
口口口口 |①---|
口②①口 |----|
口口口口 |②---|
口口口口 |----|
29
口②①口 |①---|
口口口口 |----|
口口口口 |②---|
口口口口 |----|
30
②口口① |①---|
口口口口 |----|
口口口口 |②---|
口口口口 |----|
31
口口口口 |①---|
②口口① |----|
口口口口 |②---|
口口口口 |----|
32
口口口口 |①---|
口口口口 |----|
②口口① |②---|
口口口口 |----|
33
口口口口 |①---|
口口口口 |----|
口口口口 |②---|
②口口① |----|
34
口口口口 |①---|
口口口口 |----|
口口口口 |②---|
口②①口 |----|
35
口口口口 |①---|
口口口口 |----|
②口①口 |②---|
口口口口 |----|
36
口口口口 |①---|
口②口① |----|
口口口口 |②---|
口口口口 |----|
37
②口①口 |①---|
口口口口 |----|
口口口口 |②---|
口口口口 |----|
38
口②口① |①---|
口口口口 |----|
口口口口 |②---|
口口口口 |----|
39
口口口口 |①---|
②口①口 |----|
口口口口 |②---|
口口口口 |----|
40
口口口口 |①---|
口口口口 |----|
口②口① |②---|
口口口口 |----|
41
口口口口 |①---|
口口口口 |----|
口口口口 |②---|
②口①口 |----|
42
口口口口 |①---|
口口口口 |----|
口口口口 |②---|
口②口① |----|
43
口口口口 |①---|
口口②口 |----|
口口口口 |②---|
口口①口 |----|
44
口口口口 |①---|
口②口口 |----|
口口口口 |②---|
口①口口 |----|
45
口口口口 |①---|
口口口② |----|
口口口口 |②---|
口口①口 |----|
46
口口口口 |①---|
②口口口 |----|
口口口口 |②---|
口①口口 |----|
47
口①①口 |①---|
口口口口 |----|
口口口口 |----|
口口口口 |----|
48
口口口口 |①---|
口口口口 |----|
口口口口 |②---|
口②①口 |----|
49
口口口口 |①---|
口口口口 |----|
口口①口 |----|
口口口口 |----|
50
口口口口 |①---|
口①①口 |----|
口口口口 |----|
口口口口 |----|
51
口口口口 |①---|
口②口口 |----|
口口口口 |②---|
口①口口 |----|
52
口口口口 |①---|
口口②口 |----|
口口口口 |②---|
口口①口 |----|
53
口口口口 |①---|
②口口口 |----|
口口口口 |②---|
口①口口 |----|
54
口口口口 |①---|
口口口② |----|
口口口口 |②---|
口口①口 |----|
55
口①①口 |①---|
口口口口 |----|
口口口口 |----|
口口口口 |----|
56
口口口口 |①---|
口口口口 |----|
口口口口 |②---|
口①②口 |----|
57
口口口口 |①---|
口②口口 |----|
口①口口 |----|
口口口口 |②---|
58
口口口口 |①---|
口口①口 |----|
口口口口 |----|
口口口口 |----|
59
口口口口 |①---|
口口口口 |----|
口口口口 |②---|
口②①口 |----|
60
口口③口 |①---|
口口②口 |②---|
口口①口 |③---|
口口口口 |----|
61
口①②口 |①---|
口口口口 |----|
口口口口 |②---|
口口口口 |----|
62
口口口口 |①---|
口①口口 |②---|
口②口口 |③---|
口③口口 |----|
63
口口口口 |①---|
口口口口 |----|
口口口口 |②---|
口②①口 |----|
64
口③口口 |①---|
口口②口 |②---|
口①口口 |③---|
口口口口 |----|
65
①口口① |①---|
口②②口 |----|
口口口口 |②---|
口口口口 |----|
66
口①①口 |①---|
口口口口 |----|
口口口口 |----|
口口口口 |----|
67
口口口口 |①---|
口口口口 |----|
口口口口 |②---|
口①②口 |----|
68
口③口口 |①---|
口②口口 |②---|
口①口口 |③---|
口口口口 |----|
69
口②①口 |①---|
口口口口 |----|
口口口口 |②---|
口口口口 |----|
70
口口口口 |①---|
口口①口 |②---|
口口②口 |③---|
口口③口 |----|
71
口口口口 |①---|
口口口口 |----|
口口口口 |②---|
口①②口 |----|
72
口口③口 |①---|
口②口口 |②---|
口口①口 |③---|
口口口口 |----|
73
①口口① |①---|
口②②口 |----|
口口口口 |②---|
口口口口 |----|
74
②①①② |①---|
口口口口 |----|
口口口口 |----|
口口口口 |--②-|


不確定度: 0

最終更新:2013年05月16日 16:31