君の元へ
久保田祥平

ADVANCED

Level: 6
BPM: 180
Notes: 368

1
口口口口 |----|
口口口口 |----|
口口口口 |----|
口口口口 |----|
2
口口口口 |----|
口口⑤口 |--①-|
口④③口 |②-③-|
口②①口 |④-⑤-|
3
①③②① |①---|
口口口口 |--②-|
口④口口 |③---|
口口口口 |--④-|
4
③口口③ |①---|
②口口② |②---|
口④①口 |③---|
口口口口 |--④-|
5
③①①③ |①---|
口口⑥口 |②---|
口⑤②口 |③-④-|
口口④口 |⑤-⑥-|
6
口①①口 |①---|
口②口口 |②---|
口④②口 |③---|
口③③口 |--④-|
7
①口口① |①---|
口②口口 |--②-|
口口口口
口口口口

④口口④
口口③口
口口口口 |③---|
口口口口 |--④-|
8
口口口口 |--①-|
④口口④ |②-③-|
口③口口 |④---|
⑤①②口 |⑤---|
9
口口口口 |①---|
④口口④ |②---|
口②③口 |③---|
口③②① |④---|
10
①口口① |①---|
口口⑥口 |--②-|
口⑤④口 |③-④-|
口③②口 |⑤-⑥-|
11
①③②① |①---|
口口口口 |--②-|
口口口口 |③---|
口④口口 |--④-|
12
③口口③ |①---|
口口口口 |②---|
②④口② |③---|
口口①口 |--④-|
13
③①①③ |①---|
口口④口 |②---|
口④②口 |③---|
口口口口 |④---|
14
口口口口 |①---|
①③口② |②---|
口口③口 |③---|
口②①口 |----|
15
①口口① |①---|
口②口口 |--②-|
口口口口
口口口口

④口口④
口口③口
口口口口 |③---|
口口口口 |--④-|
16
口口口口 |--①-|
④口口④ |②-③-|
口③口口 |④---|
⑤①②口 |⑤---|
17
口口口口 |①---|
④口口④ |②---|
③②口③ |③---|
口口②① |④---|
18
①口口① |①---|
口口口口 |----|
口口口口 |----|
口口口口 |----|
19
口口口口 |①---|
口②③口 |②-③-|
口口口口
①口口①

口口口口
口口口口
口④口口 |--④-|
⑤口口⑤ |--⑤-|
20
口③②口 |--①-|
口①口口 |②-③-|
⑥口⑤口 |--④-|
口④口口 |⑤-⑥-|
21
③口口② |①---|
口①①口 |②-③-|
口口口口
口口口口

口口口口
口⑤口口
口口口④ |--④-|
口口口口 |--⑤-|
22
口口口口 |--①-|
口口口口 |--②-|
口口①口 |----|
②口口② |----|
23
口口口口 |①---|
口②③口 |②-③-|
口④口口 |--④-|
⑤①①⑤ |--⑤-|
24
口③②口 |--①-|
口①口口 |②-③-|
⑥口⑤口 |--④-|
口④口口 |⑤-⑥-|
25
口口口口 |①---|
口①①口 |----|
口②③④ |--②-|
口口口口 |③-④-|
26
口口口口 |----|
口口口口 |----|
口口口口 |----|
口口口口 |----|
27
口口口口 |①---|
口②口口 |----|
口口③③ |②---|
口①口口 |③---|
28
口口①口 |----|
口②口口 |①---|
口口②口 |----|
口口口口 |②---|
29
口口口口 |----|
口口①口 |①---|
口②口口 |②---|
口口③口 |③---|
30
口口口口 |----|
口口口口 |----|
②口口② |①---|
口①口口 |②---|
31
口口口口 |----|
口口口口 |①---|
口①②口 |②---|
口③③口 |③---|
32
口口口口 |----|
口②①口 |①---|
③口口③ |②---|
口口口口 |③---|
33
口口口口 |----|
口口口口 |----|
口口口口 |----|
口口口口 |----|
34
口口口口 |----|
口口口口 |----|
口口口口 |----|
口口口口 |----|
35
口口口口 |①---|
口②口口 |----|
口口③③ |②---|
口①口口 |③---|
36
口口①口 |----|
口口口口 |①---|
口口②口 |----|
口口口口 |②---|
37
口口口口 |①---|
①③②④ |②---|
①口口④ |③---|
口口口口 |④---|
38
口口口口 |----|
口口口口 |----|
②口口② |①---|
口①口口 |②---|
39
口口口口 |----|
口口口口 |①---|
口①②口 |②---|
口③③口 |③---|
40
口①②口 |----|
口②①口 |①---|
口口口口 |----|
口口口口 |②---|
41
口口口口 |----|
口口口口 |----|
口口口口 |----|
口口口口 |----|
42
口口口口 |----|
口口口口 |----|
口口口口 |----|
口口口口 |----|
43
①口口① |①---|
②口口② |②---|
口口口口
口口口口

⑤口口⑤
口口口口
③口口③ |③---|
口口④口 |④-⑤-|
44
口口口口 |--①-|
①口口① |--②-|
口②②口 |----|
口口口口 |----|
45
①口口① |①---|
②⑤⑤② |②---|
③口口③ |③---|
口口④口 |④-⑤-|
46
口①②口 |--①-|
③口口③ |--②-|
口口口口 |----|
口口口口 |③---|
47
口口口③ |①---|
口口口口 |----|
口口口口 |----|
①②口① |②-③-|
48
口③①口 |--①-|
口口口口 |--②-|
口②④口 |--③-|
口口口口 |--④-|
49
口口口口 |----|
口①②口 |----|
口口口口 |----|
口口口口 |①-②-|
50
口口口口 |----|
口口口口 |----|
口口口口 |----|
口口口口 |----|
51
①口口① |①---|
②口口② |②---|
口口口口
口口口口

⑤口口⑤
口口口口
③口口③ |③---|
口口④口 |④-⑤-|
52
口口口口 |--①-|
①②②① |--②-|
口口口口 |----|
口口口口 |----|
53
①口口① |①---|
②口口② |②---|
③⑤⑤③ |③---|
口口④口 |④-⑤-|
54
口①②口 |--①-|
③口口③ |--②-|
口口口口 |----|
口口口口 |③---|
55
口口口口 |①---|
口③③口 |----|
口口口口 |----|
①②口① |②-③-|
56
口⑤④口 |--①-|
③口口口 |--②-|
口口①口 |--③-|
②口口② |④-⑤-|
57
口口④口 |①---|
口③①口 |----|
口口②口 |--②-|
口口口口 |③-④-|
58
口口口口 |----|
口口⑤口 |--①-|
口④③口 |②-③-|
口②①口 |④-⑤-|
59
①③②① |①---|
口口口口 |--②-|
口④口口 |③---|
口口口口 |--④-|
60
③口口③ |①---|
②口口② |②---|
口④①口 |③---|
口口口口 |--④-|
61
③①①③ |①---|
口口⑥口 |②---|
口⑤②口 |③-④-|
口口④口 |⑤-⑥-|
62
口①①口 |①---|
口②口口 |②---|
口④②口 |③---|
口③③口 |--④-|
63
①口口① |①---|
口②口口 |--②-|
口口口口
口口口口

④口口④
口口③口
口口口口 |③---|
口口口口 |--④-|
64
口口口口 |--①-|
④口口④ |②-③-|
口口③口 |④---|
⑤②①口 |⑤---|
65
口口口口 |①---|
④口口④ |②---|
口②③口 |③---|
口③②① |④---|
66
①口口① |①---|
口口⑥口 |--②-|
口⑤④口 |③-④-|
口③②口 |⑤-⑥-|
67
①③②① |①---|
口口口口 |--②-|
口口口口 |③---|
口④口口 |--④-|
68
口口口口 |①-②-|
③口口③ |③---|
口②口口
口口①口

④口口④
口口口口
口口口口 |④---|
口口⑤口 |--⑤-|
69
口⑤④⑥ |①---|
口③口口 |②---|
口②口口 |③-④-|
口①口口 |⑤-⑥-|
70
口口口口 |①---|
③口口③ |②---|
②④口② |③---|
口①①口 |--④-|
71
①口口① |①---|
口②口口 |--②-|
口口口口
口口口口

④口口④
口口③口
口口口口 |③---|
口口口口 |--④-|
72
口⑤⑤口 |--①-|
口③口口 |②-③-|
④①②④ |④---|
口口口口 |⑤---|
73
②口口② |----|
口③③口 |①---|
口口口口 |②---|
①口口① |③---|
74
口口口口 |①---|
口口口口 |----|
口①①口 |----|
②口口② |--②-|


不確定度: 0

最終更新:2013年05月16日 16:31