ヒーロー
鈴木友里絵

BASIC

Level: 3
BPM: 155
Notes: 257

1
口口口口 |----|
口口口口 |----|
口口口口 |----|
口口口口 |----|
2
口口口口 |①---|
口①①口 |----|
口口口口 |----|
口口口口 |----|
3
口口口口 |①---|
口口口口 |----|
口①①口 |----|
口口口口 |----|
4
口口口口 |①---|
口②①口 |----|
口口口口 |②---|
口口口口 |----|
5
口口口口 |①---|
口口口口 |②---|
口③②① |③---|
口口口口 |----|
6
口口口口 |①---|
口②①口 |----|
口口口口 |②---|
口口口口 |----|
7
口口口口 |①---|
口口口口 |②---|
口口①口 |----|
口②②口 |----|
8
口口口口 |①---|
①②口口 |②---|
口口④③ |③---|
口口口口 |④---|
9
口口口口 |①---|
口口口口 |----|
口口口口 |----|
口①①口 |----|
10
口口口口 |①---|
口②①口 |----|
口口口口 |②---|
口口口口 |----|
11
口口口口 |①---|
口口口口 |②---|
口③②① |③---|
口口口口 |----|
12
口②①口 |①---|
口口口口 |----|
口口口口 |②---|
口口口口 |----|
13
口口口口 |①---|
口口①口 |----|
口②②口 |②---|
口②②口 |----|
14
口口口口 |①---|
口②①口 |----|
口口口口 |②---|
口口口口 |----|
15
口口口口 |①---|
口口口口 |②---|
口③②① |③---|
口口口口 |----|
16
口口口口 |①---|
口口③口 |----|
口②①口 |②---|
口口口口 |③---|
17
口口口口 |----|
口口口口 |----|
口口口口 |----|
口口口口 |----|
18
口口口口 |①---|
口①①口 |----|
口口口口 |----|
口口口口 |----|
19
口口口口 |①---|
口口口口 |----|
口①①口 |----|
口口口口 |----|
20
口口口口 |①---|
口口②① |----|
口口口口 |②---|
口口口口 |----|
21
口口口口 |①---|
②①口口 |----|
口口口口 |②---|
口口口口 |----|
22
口口口口 |①---|
口①①口 |----|
口口口口 |----|
口口口口 |----|
23
口口口口 |①---|
口口口口 |----|
口①①口 |----|
口口口口 |----|
24
口口口口 |①---|
口③口口 |②---|
口口②口 |③---|
口口①口 |----|
25
口口口口 |----|
口口口口 |----|
口口口口 |----|
口口口口 |----|
26
口①①口 |①---|
口②②口 |②---|
③口口③ |③---|
口口口口 |----|
27
①口口① |①---|
②口口② |②---|
口③③口 |③---|
口口口口 |----|
28
口口①口 |①---|
口口②口 |②---|
口④口口 |③---|
口③口口 |④---|
29
口③口口 |①---|
口④口口 |②---|
口口②口 |③---|
口口①口 |④---|
30
口口口口 |①---|
口②②口 |----|
口①①口 |②---|
口口口口 |----|
31
口口口口 |①---|
②口口② |----|
①口口① |②---|
口口口口 |----|
32
口口口口 |①---|
口口口口 |②---|
④③②① |③---|
口口口口 |④---|
33
口口口口 |①---|
①②③④ |②---|
口口口口 |③---|
口口口口 |④---|
34
口①①口 |①---|
口②②口 |②---|
③口口③ |③---|
口口口口 |----|
35
①口口① |①---|
②口口② |②---|
口③③口 |③---|
口口口口 |----|
36
口口①口 |①---|
口口②口 |②---|
口④口口 |③---|
口③口口 |④---|
37
口③口口 |①---|
口④口口 |②---|
口口②口 |③---|
口口①口 |④---|
38
口口口口 |①---|
口②②口 |----|
口①①口 |②---|
口口口口 |----|
39
口口口口 |①---|
②口口② |----|
①口口① |②---|
口口口口 |----|
40
口口口口 |①---|
口口口口 |----|
口口口口 |----|
口①①口 |----|
41
口口口口 |①---|
口②②口 |----|
口①①口 |②---|
口口口口 |----|
42
口口②① |①---|
③④口口 |②---|
口口口口 |③---|
口口口口 |④---|
43
口口口口 |①---|
口口口口 |②---|
口口②① |③---|
③④口口 |④---|
44
口口口① |①---|
口口②口 |②---|
口口口③ |③---|
口口④口 |④---|
45
①口口口 |①---|
口②口口 |②---|
③口口口 |③---|
口④口口 |④---|
46
口口口口 |①---|
口①①口 |----|
口②②口 |②---|
口口口口 |----|
47
口口口口 |①---|
①口口① |----|
②口口② |②---|
口口口口 |----|
48
口口口口 |①---|
口口口口 |----|
口②②口 |②---|
口①①口 |----|
49
口③①口 |①---|
口④②口 |②---|
口口口口 |③---|
口口口口 |④---|
50
口口口口 |①---|
口口口口 |----|
口①①口 |②---|
口②②口 |----|
51
口口口口 |①---|
口口口口 |----|
②口口② |②---|
①口口① |----|
52
口口口口 |①---|
口①①口 |----|
口口口口 |----|
口口口口 |----|
53
口口口口 |①---|
④③②① |②---|
口口口口 |③---|
口口口口 |④---|
54
口口口口 |①---|
口口①口 |----|
口②口口 |②---|
口口口口 |----|
55
口口口口 |①---|
口①口口 |----|
口口②口 |②---|
口口口口 |----|
56
口口口口 |①---|
口口①口 |----|
口②口口 |②---|
口口口口 |----|
57
口口口口 |①---|
口①口口 |----|
口口②口 |②---|
口口口口 |----|
58
口口口口 |①---|
口口①口 |----|
②口口口 |②---|
口口口口 |----|
59
口口口口 |①---|
口①口口 |----|
口口口② |②---|
口口口口 |----|
60
口口口口 |①---|
口口口口 |②---|
口④③口 |③---|
口②①口 |④---|
61
口口口口 |①---|
口①①口 |----|
口②②口 |②---|
口口口口 |----|
62
口①①口 |①---|
口②②口 |②---|
③口口③ |③---|
口口口口 |----|
63
①口口① |①---|
②口口② |②---|
口③③口 |③---|
口口口口 |----|
64
口口①口 |①---|
口口②口 |②---|
口④口口 |③---|
口③口口 |④---|
65
口③口口 |①---|
口④口口 |②---|
口口②口 |③---|
口口①口 |④---|
66
口口口口 |①---|
口②②口 |----|
口①①口 |②---|
口口口口 |----|
67
口口口口 |①---|
②口口② |----|
①口口① |②---|
口口口口 |----|
68
口口口口 |①---|
口口口口 |----|
口口口口 |----|
口①①口 |----|
69
口口口口 |①---|
口②②口 |----|
口①①口 |②---|
口口口口 |----|
70
口口①口 |①---|
口②口口 |②---|
口口③口 |③---|
口④口口 |④---|
71
口口口① |①---|
②口口口 |②---|
口口口③ |③---|
④口口口 |④---|
72
口口口口 |①---|
①口口① |----|
②口口② |②---|
口口口口 |----|
73
口口口口 |①---|
口①①口 |----|
口②②口 |②---|
口口口口 |----|
74
口口口口 |①---|
口口口口 |----|
口口口口 |②---|
②①①② |----|
75
口口口口 |①---|
②口口② |----|
①口口① |②---|
口口口口 |----|
76
口口口口 |①---|
口②②口 |----|
口①①口 |②---|
口口口口 |----|
77
口口口口 |①---|
口口口口 |----|
口①①口
口口口口

口口口口
口口②口
口③口口 |②---|
口口口口 |③---|


不確定度: 0

最終更新:2013年05月16日 16:30