Gravity
HaKU

EXTREME

Level: 8
BPM: 175
Notes: 663

BPM: 174
1
口口口口 |----|
口口口口 |----|
口口口口 |----|
口口口口 |----|
2
①①①① |①---|
②②②② |②---|
③③③③ |③---|
④④④④ |④---|
3
口口口口 |①---|
①①①① |②---|
②②②② |③---|
③③③③

BPM: 188.5

口口口口
口口口口
口口口口
口口口口 |----|

BPM: 174
4
①⑤②⑥ |①-②-|
口口口口 |③-④-|
③⑦④⑧ |⑤-⑥-|
口口口口 |⑦-⑧-|
5
①⑤②⑥ |①-②-|
口口口口 |③-④-|
③口④口 |⑤-⑥-|
口⑦口⑧ |⑦-⑧-|
6
口口口口 |①-②-|
①⑤②⑥ |③-④-|
口口口口 |⑤-⑥-|
③⑦④⑧ |⑦-⑧-|
7
口口口口 |①-②-|
①⑤②⑥ |③-④-|
口⑦口⑧ |⑤-⑥-|
③口④口 |⑦-⑧-|
8
①⑤②⑥ |①-②-|
③⑦④⑧ |③-④-|
口口口口 |⑤-⑥-|
口口口口 |⑦-⑧-|
9
口口口口 |①-②-|
口口口口 |③-④-|
①⑤②⑥ |⑤-⑥-|
③⑦④⑧ |⑦-⑧-|

BPM: 176
10
①⑤②⑥ |①-②-|
口口口口 |③-④-|
③⑦④⑧ |⑤-⑥-|
口口口口 |⑦-⑧-|
11
①⑤②⑥ |①-②-|
口口口口 |③-④-|
③⑦④⑧ |⑤-⑥-|
口口口口 |⑦-⑧-|

BPM: 175
12
口口口口 |①-②-|
①④③⑥ |③-④-|
⑦口口口 |⑤-⑥-|
口⑤②⑥ |--⑦-|
13
①①口③ |--①-|
口口口口 |--②-|
口④⑤口 |③-④-|
口口②口 |⑤---|
14
口①口口 |①-②-|
④口②口 |③-④-|
口⑤⑧③ |⑤-⑥-|
⑦口⑥口 |⑦-⑧-|
15
①⑤口口 |--①-|
口口④② |--②-|
①③口② |③-④---|
口口⑥口 |⑤-⑥-|
16
③⑦④⑧ |①-②-|
口口口⑧ |③-④-|
①⑤②⑥ |⑤-⑥-|
口口口口 |⑦-⑧-|
17
口口⑥⑥ |--①-|
②⑤口口 |--②-|
口口④口 |③-④-|
①③①口 |⑤-⑥-|
18
口⑥⑥口 |--①-|
③口口⑤ |②-③-|
②口口口 |④-⑤-|
①口口④ |--⑥-|

BPM: 172
19
口口④口 |--①-|
口口口口 |--②-|
①③口② |--③-|
口①②口 |④---|

BPM: 179
20
口口口口 |①-②-|
③③口④ |③---|
口⑤①口 |④--⑤|
②口⑥⑥ |--⑥-|

BPM: 175
21
口口口口 |--①-|
④⑤③口 |②-③-|
⑦⑥②口 |④-⑤-|
口①口口 |⑥-⑦-|
22
口口口口 |--①-|
④④②② |②-③-|
⑥⑥口口 |④--⑤|
口③⑤① |--⑥-|
23
口口口口 |--①-|
口口②① |②-③-|
口口③④ |④---|
口口口口 |----|
24
口①②口 |①-②-|
口⑤⑥口 |③-④-|
口③④口 |⑤-⑥-|
口⑦⑧口 |⑦-⑧-|
25
⑦口口⑧ |①-②-|
③口口④ |③-④-|
⑤口口⑥ |⑤-⑥-|
①口口② |⑦-⑧-|
26
口口口口 |①---|
口①①口 |----|
口口口口 |----|
口口口口 |----|
27
口口口口 |①---|
口口口口 |----|
口①②口 |②---|
口②①口 |----|
28
口口口口 |--①-|
③口④④ |②-③-|
⑤口口② |④---|
①口⑥⑥ |⑤-⑥-|
29
口口口口 |--①-|
④⑤③口 |②-③-|
⑦⑥②口 |④-⑤-|
口①口口 |⑥-⑦-|
30
②口口② |--①-|
口口口口 |--②-|
④④口口 |--③-|
①③③① |--④-|
31
口口口口 |--①-|
口②②口 |--②-|
口口①① |----|
口口口口 |----|
32
口①②口 |①-②-|
口⑤⑥口 |③-④-|
口③④口 |⑤-⑥-|
口⑦⑧口 |⑦-⑧-|
33
①口口② |①-②-|
⑤⑦⑧⑥ |③-④-|
③口口④ |⑤-⑥-|
口口口口 |⑦-⑧-|
34
口口口口 |①---|
口口口口 |----|
口口口口 |----|
口①①口 |----|
35
口口口口 |①---|
口口口口 |----|
口②①口 |②---|
口①②口 |----|
36
口口口口 |①-②-|
③口⑤⑤ |③---|
②口口口 |④-⑤-|
①口⑥④ |--⑥-|
37
口口口口 |----|
口口③② |①---|
口口①口 |②-③-|
口口④④ |--④-|
38
口口口④ |①-②-|
③口⑤⑥ |③---|
②口⑦口 |④-⑤-|
①口口口 |⑥-⑦-|
39
口口③口 |①-②-|
口口口口 |--③-|
口口口①
口口②口

口口口口
口口口④
口口口⑤ |----|
口口口口 |④-⑤-|
40
口口口④ |①-②-|
③口⑤⑥ |③-④-|
②口⑦⑧ |⑤-⑥-|
①口口口 |⑦-⑧-|
41
口口口口 |①-②-|
口口口口 |③---|
口口口口 |----|
口③①② |----|
42
口口口口 |①---|
口口口口 |----|
口②口口 |②---|
①③③① |③---|
43
①口口① |----|
②口口② |①---|
③③③③ |②---|
口口口口 |③---|
44
②②②② |----|
口口口口 |----|
口口口口 |①---|
①口口① |②---|
45
④④④④ |①---|
口②②口 |②---|
③②②③ |③---|
口①①口 |④---|
46
口④④口 |①---|
④③③④ |②---|
③②②③ |③---|
②①①② |④---|
47
①口口① |①---|
④③③④ |②---|
③②②③ |③---|
口口口口 |④---|
48
口④④口 |①---|
④③③④ |②---|
③②②③ |③---|
②①①② |④---|
49
④口口④ |①---|
口口口口 |②---|
口②②口 |③---|
③①①③ |④---|
50
口①①口 |①---|
①②②① |②---|
②③③② |③---|
③④④③ |④---|
51
①口口① |①---|
②口口② |②---|
③③③③ |③---|
④④④④ |④---|
52
①①①① |①---|
口②③口 |②---|
④④④④ |③---|
口口口口 |④---|
53
口口口口 |①---|
口②③口 |②---|
④④④④ |③---|
①①①① |④---|
54
①①①① |①---|
口②③口 |②---|
口口口口 |③---|
④④④④ |④---|
55
④④④④ |①---|
口②③口 |②---|
①①①① |③---|
口口口口 |④---|
56
④④④④ |①---|
③③③③ |②---|
口②②口 |③---|
①①①① |④---|
57
④④④④ |①---|
③③③③ |②---|
①口口② |③---|
①口口② |④---|
58
④④④④ |①---|
口口口口 |②---|
口②②口 |③---|
③①①③ |④---|
59
④④④④ |①---|
口②②口 |②---|
③②②③ |③---|
口①①口 |④---|
60
口④④口 |①---|
④③③④ |②---|
③②②③ |③---|
②①①② |④---|
61
①口口① |①---|
④③③④ |②---|
③②②③ |③---|
口口口口 |④---|
62
口④④口 |①---|
④③③④ |②---|
③②②③ |③---|
②①①② |④---|
63
④口口④ |①---|
口口口口 |②---|
口②②口 |③---|
③①①③ |④---|
64
口①①口 |①---|
①②②① |②---|
②③③② |③---|
③④④③ |④---|
65
口①①口 |①---|
口②②口 |②---|
口③③口 |③---|
④④④④ |④---|
66
①①①① |①---|
口②③口 |②---|
④④④④ |③---|
口口口口 |④---|
67
口口口口 |①---|
口②③口 |②---|
④④④④ |③---|
①①①① |④---|
68
①①①① |①---|
口②③口 |②---|
口口口口 |③---|
④④④④ |④---|
69
④④④④ |①---|
口②③口 |②---|
①①①① |③---|
口口口口 |④---|
70
④④④④ |①---|
③③③③ |②---|
口②②口 |③---|
①①①① |④---|
71
④④④④ |①---|
③③③③ |②---|
①口口② |③---|
口口口口 |④---|
72
④④④④ |①---|
③③③③ |②---|
②②②② |③---|
①①①① |④---|
73
④④④④ |①---|
③③③③ |②---|
②②②② |③---|
①①①① |④---|
74
④④④④ |①---|
③③③③ |②---|
②②②② |③---|
①①①① |④---|
75
口口口口 |①---|
口口口口 |----|
口口口口 |----|
①①①① |----|


不確定度: 0

タグ:

+ タグ編集
  • タグ:

このサイトはreCAPTCHAによって保護されており、Googleの プライバシーポリシー利用規約 が適用されます。

最終更新:2013年04月07日 23:58