ヒーロー
鈴木友里絵

ADVANCED

Level: 7
BPM: 155
Notes: 498

1
口口①口 |----|
口口口口 |----|
口口口口 |----|
口口口口 |--①-|
2
口①口口 |①-②-|
口口②口 |--③-|
③⑤④口 |--④-|
口口⑥口 |⑤-⑥-|
3
口口口口 |--①-|
③口口③ |②---|
②口口口 |----|
①口口口 |③---|
4
口①①口 |①---|
⑤③③④ |②---|
口②②口 |③---|
口口口口 |④-⑤-|
5
口口口口 |①-②-|
口④③口 |③-④-|
②口⑤① |----|
口口口口 |--⑤-|
6
口④③口 |①---|
口⑥⑤口 |②---|
口①口口 |③-④-|
口②口口 |⑤-⑥-|
7
④口口③ |--①-|
②口口② |②---|
②①①② |----|
口口口口 |③-④-|
8
口②①口 |①-②-|
口④③口 |③-④-|
口⑥⑤口 |⑤-⑥-|
口⑧⑦口 |⑦-⑧-|
9
口口口口 |----|
口口口口 |----|
口①口口 |----|
口口口口 |--①-|
10
口口口口 |①---|
口①口口 |②---|
口口②口 |③-④-|
⑤③④⑥ |⑤-⑥-|
11
口口口口 |①-②-|
③⑤口④ |③-④-|
①口⑤② |----|
口口口口 |⑤---|
12
②④③口 |①---|
⑥口①⑤ |②---|
口①口口 |③-④-|
口口口② |⑤-⑥-|
13
口口⑤口 |①-②-|
口④④口 |③-④-|
②④④① |----|
口口③口 |--⑤-|
14
口①口口 |①---|
口②口口 |②---|
口④③口 |③-④-|
口⑥⑤口 |⑤-⑥-|
15
④口④口 |①-②-|
④②①口 |③-④-|
口口③⑤ |--⑤-|
口口⑤⑤ |----|
16
口①⑥口 |①---|
口⑤②口 |②-③-|
口③④口 |④-⑤-|
口口口口 |⑥---|
17
口口口口 |----|
口口口口 |----|
口口口口 |----|
口口①口 |--①-|
18
口⑦⑥口 |①-②-|
口⑤②口 |--③-|
口①④口 |④-⑤-|
口③口口 |⑥-⑦-|
19
③口口① |①-②-|
④口口② |③-④-|
口⑤⑤口 |⑤---|
口口口⑥ |--⑥-|
20
口⑥⑥口 |①-②-|
⑤口口② |--③-|
①口口④ |④-⑤-|
③口口口 |⑥---|
21
①口口① |①---|
口②②口 |②---|
口口口口 |----|
口口③口 |--③-|
22
口⑦⑥口 |①-②-|
口⑤②口 |--③-|
口①④口 |④-⑤-|
口③口口 |⑥-⑦-|
23
③口口① |①-②-|
④口口② |③-④-|
口口⑤口 |⑤--⑥|
口⑥口⑦ |--⑦-|
24
口⑤④口 |①-②-|
③⑦⑥① |③-④-|
口口口⑧ |⑤-⑥-|
②口口口 |⑦-⑧-|
25
口口口口 |----|
口口口口 |①---|
①口口口 |②---|
口②②口 |----|
26
④④①① |①---|
②②口口 |②---|
口口口口 |③---|
③③口口 |--④-|
27
口口口口 |--①-|
口口口① |②---|
口②口口 |③---|
口口③③ |----|
28
口口口口 |①-②-|
口⑥⑧口 |③-④-|
②⑤⑦④ |⑤-⑥-|
①口口③ |⑦-⑧-|
29
②①②口 |--①-|
②口口口 |--②-|
口④口③ |--③-|
口口③③ |--④-|
30
口口②⑦ |①-②-|
口①③口 |③-④-|
口⑥⑤口 |⑤-⑥-|
口④口口 |--⑦-|
31
①口口口 |①-②-|
口②口⑥ |③-④-|
口口③口 |--⑤-|
口④⑤口 |--⑥-|
32
口口⑧口 |①-②-|
②③①口 |③-④-|
⑥⑦⑤④ |⑤-⑥-|
口口口口 |⑦-⑧-|
33
口①口口 |①---|
②③口② |②---|
口⑤④口 |③-④-|
口口口口 |⑤---|
34
④④①① |①---|
②②口口 |②---|
口口口口 |③---|
③③口口 |--④-|
35
口口口口 |--①-|
口口口① |②---|
口②口口 |③---|
口口③③ |----|
36
口口口口 |①-②-|
口⑥⑧口 |③-④-|
②⑤⑦④ |⑤-⑥-|
①口口③ |⑦-⑧-|
37
②①②口 |--①-|
②④口口 |--②-|
口口口③ |--③-|
口口③③ |--④-|
38
口④④口 |①-②-|
⑥口①口 |③-④-|
口②③口 |--⑤-|
口⑤⑤口 |--⑥-|
39
口口口口 |①-②-|
口口口① |③-④-|
口②③口
口④口口

口⑤口口
口口⑥口
口⑦口口 |--⑤-|
口口口口 |⑥-⑦-|
40
口口口口 |----|
口③口口 |----|
口口②口 |--①-|
口①口口 |②-③-|
41
③①③口 |①--②|
③口②口 |--③-|
口口口④ |----|
口口④④ |④---|
42
②口口④ |①---|
口①③口 |②---|
②口口④ |③---|
口①③口 |④---|
43
口口口口 |①---|
①③④② |②---|
口口口口 |③---|
①③④② |④---|
44
口①②口 |①---|
①口口② |②---|
③口口④ |③---|
口③④口 |④---|
45
①口口② |①---|
口①②口 |②---|
口③④口 |③---|
③口口④ |④---|
46
口①①口 |----|
口②口口 |①--②|
口口③口 |-③-④|
口④口口 |----|
47
口②②口 |①---|
口口③口 |②--③|
口口口口
①口口①

口口口口
口口口口
口④口口 |-④-⑤|
⑥口⑤口 |--⑥-|
48
口口口口 |①---|
②口口① |----|
②口口① |②---|
口口口口 |----|
49
口①②口 |①-②-|
口③④口 |③-④-|
口⑤⑥口 |⑤-⑥-|
口⑦口口 |⑦---|
50
口②③口 |①---|
①②③① |--②-|
口口口④ |③---|
口口口口 |--④-|
51
②口④① |①--②|
口⑤口口 |--③-|
③口⑥口 |④--⑤|
口口口口 |--⑥-|
52
口①口口 |①---|
口口口口 |----|
口口口口 |----|
口口口口 |----|
53
口⑦口口 |①-②-|
口⑤⑥口 |③-④-|
口③④口 |⑤-⑥-|
口①②口 |⑦---|
54
①口口④ |①---|
口②口口 |②---|
口口口口 |③---|
口口口③ |--④-|
55
口口口口 |--①-|
口①口口 |②---|
口口②口 |③---|
③口口口 |----|
56
③③①① |①---|
口口口口 |②---|
口口口口 |③---|
④④②② |④---|
57
②口②口 |①---|
②①①口 |--②-|
口口口③ |--③-|
口口③③ |----|
58
④口口③ |①-②-|
口⑥②口 |③-④-|
⑤①口口 |--⑤-|
口口口口 |--⑥-|
59
口口口口 |①-②-|
口口口口 |③-④-|
口⑤①口 |--⑤-|
③口④② |----|
60
②②④④ |①---|
口口口口 |②---|
口口口口 |③---|
①①③③ |④---|
61
口口口口 |①---|
口②②口 |----|
③①①③ |②---|
口口口口 |③---|
62
④④①① |①---|
②②口口 |②---|
口口口口 |③---|
③③口口 |--④-|
63
口口口口 |--①-|
口口口① |②---|
口②口口 |③---|
口口③③ |----|
64
口口口口 |①-②-|
口⑥⑧口 |③-④-|
②⑤⑦④ |⑤-⑥-|
①口口③ |⑦-⑧-|
65
②①②口 |--①-|
②④口口 |--②-|
口口口③ |--③-|
口口③③ |--④-|
66
口④④口 |①-②-|
⑥口①口 |③-④-|
口②③口 |--⑤-|
口⑤⑤口 |--⑥-|
67
口口口口 |①-②-|
口口口① |③-④-|
口②③口
口④口口

口⑤口口
口口⑥口
口⑦口口 |--⑤-|
口口口口 |⑥-⑦-|
68
口口口口 |----|
口③口口 |----|
口口②口 |--①-|
口①口口 |②-③-|
69
③①③口 |①--②|
③口②口 |--③-|
口口口④ |----|
口口④④ |④---|
70
②口口① |①-②-|
④口口③ |③-④-|
⑥口口⑤ |⑤-⑥-|
⑧口口⑦ |⑦-⑧-|
71
口②①口 |①-②-|
口④③口 |③-④-|
口⑥⑤口 |⑤-⑥-|
口⑧⑦口 |⑦-⑧-|
72
口口⑥④ |--①-|
②⑤口③ |②-③-|
①口口口 |④-⑤-|
口口口口 |⑥---|
73
①口③口 |--①-|
口②口④ |--②-|
①口③口 |--③-|
口②口④ |--④-|
74
③口口④ |--①-|
③口口④ |②--③|
⑤口口口 |--④-|
⑤①②口 |-⑤--|
75
口②④④ |①--②|
口②口口 |--③-|
口口③① |--④-|
⑤⑤③① |⑤---|
76
口口口口 |--①-|
③①①② |--②-|
⑤口口④ |③-④-|
口口口⑥ |⑤-⑥-|
77
口⑤④口 |--①-|
⑥③口⑥ |②-③-|
口口②口 |④-⑤-|
口①口口 |⑥---|


不確定度: 0

最終更新:2013年05月16日 16:29