Wow Wow VENUS
VENUS

BASIC

Level: 3
BPM: 157
Notes: 263

1
口口口口 |----|
口口口口 |----|
口口口口 |----|
口口口口 |----|
2
口口口口 |①---|
口①①口 |----|
口口口口 |----|
口口口口 |----|
3
口口口口 |①---|
口①口口 |②---|
口②口口 |③---|
口③口口 |----|
4
口口口口 |①---|
口①①口 |----|
口口口口 |----|
口口口口 |----|
5
口口口口 |①---|
口口①口 |②---|
口④②口 |③---|
口口③口 |④---|
6
口口口口 |①---|
口①①口 |----|
口口口口 |----|
口口口口 |----|
7
口口口口 |①---|
口①口口 |②---|
口②口口 |③---|
口③口口 |----|
8
口口口口 |①---|
口①①口 |----|
口口口口 |----|
口口口口 |----|
9
口口口口 |①---|
口口①口 |②---|
口④②口 |③---|
口口③口 |④---|
10
口口②③ |①---|
口口口① |②---|
口口口口 |③---|
口口口口 |----|
11
口口②③ |①---|
口口口① |②---|
口口口口 |③---|
口口口口 |----|
12
口口②③ |①---|
口口口① |②---|
口口口口 |③---|
口口口口 |----|
13
口口②③ |①---|
口口口① |②---|
口口口口 |③---|
口口口口 |----|
14
口②②口 |①---|
口口口口 |----|
口①①口 |②---|
口口口口 |----|
15
口口口口 |①---|
口口口口 |----|
口口①② |②---|
口口口口 |----|
16
口口口口 |①---|
口口口口 |----|
②①口口 |②---|
口口口口 |----|
17
口口口口 |①---|
④③②① |②---|
口口口口 |③---|
口口口口 |④---|
18
口②②口 |①---|
口口口口 |----|
口①①口 |②---|
口口口口 |----|
19
口口口口 |①---|
口口①口 |----|
口②口口 |②---|
口口口口 |----|
20
口口口口 |①---|
口口③② |----|
口口①口 |②---|
口口口口 |③---|
21
口口口口 |①---|
②①口口 |②---|
口口口口 |----|
口口口口 |----|
22
口口口口 |①---|
口③④口 |②---|
口①②口 |③---|
口口口口 |④---|
23
口口口口 |①---|
口口口口 |----|
①口口② |②---|
口口口口 |----|
24
口口口口 |①---|
口口口口 |----|
口②②口 |②---|
口①①口 |----|
25
口口口② |①---|
口口口① |----|
口口口口 |②---|
口口口口 |----|
26
口口口口 |①---|
口②口口 |----|
口①①口 |②---|
口口口口 |----|
27
口口口口 |①---|
口口②口 |----|
口①①口 |②---|
口口口口 |----|
28
口口口口 |①---|
口③④口 |②---|
口①②口 |③---|
口口口口 |④---|
29
口口口口 |①---|
口口口口 |----|
①口口② |②---|
口口口口 |----|
30
口口口口 |①---|
口①①口 |----|
口②②口 |②---|
口口口口 |----|
31
口口口口 |----|
口口口口 |----|
口口口口 |----|
口口口口 |----|
32
口口口口 |①---|
口①①口 |----|
口①①口 |----|
口口口口 |----|
33
口口口口 |①---|
②口口② |----|
①口口① |②---|
口口口口 |----|
34
口口③③ |①---|
口口①口 |②---|
口②口口 |③---|
口口口口 |----|
35
口口②② |①---|
口口口口 |----|
口①①口 |②---|
口口口口 |----|
36
口口口口 |①---|
口口口口 |----|
①③②① |②---|
口口口口 |③---|
37
口口口口 |①---|
口口口口 |----|
口口口口 |②---|
①③②① |③---|
38
口口③③ |①---|
口口①口 |②---|
口②口口 |③---|
口口口口 |----|
39
口口②② |①---|
口口口口 |----|
口①①口 |②---|
口口口口 |----|
40
口口口口 |①---|
①口口① |----|
②口口② |②---|
口口口口 |----|
41
口口口口 |①---|
口口口口 |----|
口③口口 |②---|
①口②① |③---|
42
口口②③ |①---|
口口口① |②---|
口口口口 |③---|
口口口口 |----|
43
口口②③ |①---|
口口口① |②---|
口口口口 |③---|
口口口口 |----|
44
口口②③ |①---|
口口口① |②---|
口口口口 |③---|
口口口口 |----|
45
口口②③ |①---|
口口口① |②---|
口口口口 |③---|
口口口口 |----|
46
口口③③ |①---|
口口①口 |②---|
口②口口 |③---|
口口口口 |----|
47
口口③③ |①---|
口②①口 |②---|
口口口口 |③---|
口口口口 |----|
48
口口③③ |①---|
口口①口 |②---|
口②口口 |③---|
口口口口 |----|
49
口口③③ |①---|
②口口① |②---|
口口口口 |③---|
口口口口 |----|
50
口口③③ |①---|
口口①口 |②---|
口②口口 |③---|
口口口口 |----|
51
口口口③ |①---|
口口口口 |②---|
口②①口 |③---|
口口口口 |----|
52
口口③③ |①---|
口口①口 |②---|
口②口口 |③---|
口口口口 |----|
53
口口③③ |①---|
口口口口 |②---|
②口口① |③---|
口口口口 |----|
54
口口口口 |①---|
口①①口 |----|
口②②口 |②---|
口口口口 |----|
55
口口口口 |①---|
口①口口 |②---|
口②口口 |③---|
口③口口 |----|
56
口口口口 |①---|
口①①口 |----|
口②②口 |②---|
口口口口 |----|
57
口口口口 |①---|
口口①口 |②---|
④口②④ |③---|
口口③口 |④---|
58
口口口口 |①---|
口①①口 |----|
口②②口 |②---|
口口口口 |----|
59
口口口口 |①---|
口①口口 |②---|
口②口口 |③---|
口③口口 |----|
60
口口口口 |①---|
口①①口 |----|
口②②口 |②---|
口口口口 |----|
61
口口口口 |①---|
口口①口 |②---|
④口②④ |③---|
口口③口 |④---|
62
口口②② |①---|
口①①口 |----|
口口口口 |②---|
口口口口 |----|
63
口口②② |①---|
口口口口 |----|
口①①口 |②---|
口口口口 |----|
64
口口口口 |①---|
①口口① |----|
口口口口 |----|
口口口口 |----|
65
口口口口 |①---|
口③口口 |----|
①口②① |②---|
口口口口 |③---|
66
口口③③ |①---|
口口①口 |②---|
口②口口 |③---|
口口口口 |----|
67
口口②② |①---|
口口口口 |----|
口①①口 |②---|
口口口口 |----|
68
口口口口 |①---|
口口口口 |----|
①③②① |②---|
口口口口 |③---|
69
口口口口 |①---|
口口口口 |----|
口口口口 |②---|
①③②① |③---|
70
口口③③ |①---|
口口①口 |②---|
口②口口 |③---|
口口口口 |----|
71
口口②② |①---|
口口口口 |----|
口①①口 |②---|
口口口口 |----|
72
口口口口 |①---|
①口口① |----|
②口口② |②---|
口口口口 |----|
73
口口口口 |①---|
口口口口 |----|
口③口口 |②---|
①口②① |③---|
74
口口口口 |①---|
②②①① |----|
口口口口 |②---|
口口口口 |----|
75
口口口口 |①---|
口口口口 |----|
②②①① |②---|
口口口口 |----|
76
口口口口 |①---|
②②①① |----|
口口口口 |②---|
口口口口 |----|
77
口口③③ |①---|
口口口口 |----|
口②口口 |--②-|
口①①口 |③---|


不確定度: 0

最終更新:2013年05月16日 13:54