とってもとっても、ありがとう。
日向美ビタースイーツ♪

BASIC

Level: 1
BPM: 92
Notes: 104

1
口口口口 |----|
口口口口 |----|
口口口口 |----|
口口口口 |----|
2
口口口口 |①---|
口口口口 |----|
口口口口 |②---|
口①②口 |----|
3
口口口口 |①---|
口口口口 |----|
口①②口 |②---|
口口口口 |----|
4
口口口口 |①---|
口①②口 |----|
口口口口 |②---|
口口口口 |----|
5
口①②口 |①---|
口口口口 |----|
口口口口 |②---|
口口口口 |----|
6
①②口口 |①---|
口口口口 |----|
口口口口 |②---|
口口口口 |----|
7
口口①② |①---|
口口口口 |----|
口口口口 |②---|
口口口口 |----|
8
口口口口 |①---|
口口②① |----|
口口口口 |②---|
口口口口 |----|
9
口口口口 |①---|
②①口口 |----|
口口口口 |②---|
口口口口 |----|
10
口口口口 |①---|
口口口口 |----|
①②口口 |②---|
口口口口 |----|
11
口口口口 |①---|
口口口口 |----|
口口①② |②---|
口口口口 |----|
12
口口口口 |①---|
口口口口 |----|
口口口口 |②---|
口口②① |----|
13
口口口口 |①---|
口口口口 |----|
口③③口 |②---|
②①口口 |③---|
14
口口口口 |①---|
口①①口 |----|
口口口口
口口口口

口口口口
口②②口
口口口口 |②---|
口口口口 |----|
15
口口口口 |①---|
口口②① |----|
口口口口 |②---|
口口口口 |----|
16
口口口口 |①---|
②①口口 |----|
口口口口 |②---|
口口口口 |----|
17
口口口口 |①---|
口口口口 |----|
①②口口 |②---|
口口口口 |----|
18
口口口口 |①---|
口口口口 |----|
口口①② |②---|
口口口口 |----|
19
口口口口 |①---|
口口口口 |----|
口②②口 |②---|
口①①口 |----|
20
口②②口 |①---|
口①①口 |----|
口口口口 |②---|
口口口口 |----|
21
口①①口 |①---|
口②②口 |----|
口口口口 |②---|
口口口口 |----|
22
口口口口 |①---|
口口口口 |----|
口①①口 |②---|
口②②口 |----|
23
口口口口 |①---|
口口口② |----|
口口口① |②---|
口口口口 |----|
24
口口②① |①---|
口口口口 |----|
口口口口 |②---|
口口口口 |----|
25
②①口口 |①---|
口口口口 |----|
口口口口 |②---|
口口口口 |----|
26
口口口口 |①---|
①口口口 |----|
②口口口 |②---|
口口口口 |----|
27
口口口口 |①---|
口口②口 |----|
口①①口 |②---|
口口口口 |----|
28
口口口口 |①---|
口①②口 |----|
口口口口 |②---|
口口口口 |----|
29
口①①口 |①---|
口口口口 |----|
口口口口
口口口口

口②口口
口口口口
口口口口 |②---|
口口口口 |----|
30
口②①口 |①---|
口口口口 |----|
口口口口 |②---|
口口口口 |----|
31
口口口① |①---|
口口口② |----|
口口口口 |②---|
口口口口 |----|
32
口口口口 |①---|
口口口口 |----|
口口口① |②---|
口口口② |----|
33
口口口口 |①---|
口口口口 |----|
口口口口 |②---|
口②①口 |----|
34
口口口口 |①---|
口口口口 |----|
②口口口 |②---|
①口口口 |----|
35
②口口口 |①---|
①口口口 |----|
口口口口 |②---|
口口口口 |----|
36
口口口口 |----|
口口口口 |----|
口①①口 |①---|
口口口口 |----|
37
口口②口 |①---|
口①①口 |----|
口口口口 |②---|
口口口口 |----|
38
口①口口 |①---|
口②②口 |----|
口口口口 |②---|
口口口口 |----|
39
口口口口 |①---|
口口口口 |----|
口①①口 |②---|
口口②口 |----|
40
口口口口 |①---|
口口口口 |----|
口②②口 |②---|
口①口口 |----|
41
口口②口 |①---|
口①①口 |----|
口口口口 |②---|
口口口口 |----|
42
口①口口 |①---|
口②②口 |----|
口口口口 |②---|
口口口口 |----|
43
口口口口 |①---|
口口口口 |----|
口①①口 |----|
口口口口 |----|


不確定度: 0

最終更新:2013年05月16日 13:53