とってもとっても、ありがとう。
日向美ビタースイーツ♪

ADVANCED

Level: 6
BPM: 92
Notes: 260

1
口口口口 |----|
口口口口 |----|
口口口口 |----|
口口口口 |----|
2
口口口口 |①--②|
④⑦③⑧ |③-④-|
口⑥②口 |⑤--⑥|
口①⑤口 |⑦-⑧-|
3
口⑥⑤口 |①②-③|
③⑦②④ |-④-⑤|
口口①口 |⑥--⑦|
口口口口 |----|
4
口口口口 |①--②|
④⑦③⑧ |③-④-|
口⑥②口 |⑤--⑥|
口①⑤口 |⑦-⑧-|
5
口⑥⑤口 |①②-③|
③⑦②④ |-④-⑤|
口口①口 |⑥--⑦|
口口口口 |----|
6
④口⑤③ |--①-|
口②②口 |②-③④|
口①①口 |----|
口口口口 |---⑤|
7
口①口口 |①-②-|
②口口② |③-④⑤|
③⑤④③ |----|
口口口口 |----|
8
口⑥⑤口 |--①-|
口⑦④口 |②-③④|
口③⑧口 |--⑤-|
口②①口 |⑥-⑦⑧|
9
口口口口 |--①-|
口口④口 |②-③④|
口③口口 |----|
口②①口 |----|
10
④口口③ |--①-|
口②②口 |②-③④|
口①①口
口口口口

口⑧⑦口
⑤口口⑤
口⑥⑥口 |--⑤-|
口口口口 |⑥-⑦⑧|
11
口口口口 |--①-|
①口口① |②-③④|
②④③② |----|
口口口口 |----|
12
口⑥⑤口 |--①-|
口⑦④口 |②-③④|
口③⑧口 |--⑤-|
口②①口 |⑥-⑦⑧|
13
口口口口 |--①-|
口口④口 |②-③④|
口③口口
口②①口

口口口口
⑥口口⑥
口口口口 |----|
口⑤⑤口 |⑤-⑥-|
14
②口口② |①---|
口口口口 |----|
口①①口 |②---|
口口口口 |----|
15
口口口口 |----|
口口⑤口 |--①-|
口④③口 |②-③-|
口②①口 |④-⑤-|
16
②③③② |①---|
口①口口 |②--③|
口口口口 |----|
口口口口 |----|
17
口⑤⑥④ |----|
口口口③ |--①-|
口口口② |②-③-|
口口口① |④-⑤⑥|
18
口口口口 |①---|
口①口口 |--②-|
③⑦⑥② |③---|
口⑤④口 |④⑤⑥⑦|
19
口③②口 |①---|
口口①口 |--②③|
口口口口
口口口口

口口口口
口④④口
口⑤⑤口 |--④-|
口⑥⑥口 |⑤-⑥-|
20
口②③口 |①-②③|
口④④① |-④-⑤|
口⑤⑤口
口口口口

口口口口
口口口口
口⑧⑨口 |----|
口⑥⑦口 |⑥⑦⑧⑨|
21
口②③口 |①---|
口①口口 |-②-③|
口口口口
口口口口

口口口口
口④④口
口⑤⑤口 |--④-|
口⑥⑥口 |⑤-⑥-|
22
口③②口 |①-②③|
①④④口 |-④-⑤|
口⑤⑤口 |----|
口口口口 |----|
23
⑦⑤⑥口 |--①-|
口④③口 |②-③④|
口②口口 |--⑤-|
口口①口 |⑥-⑦-|
24
口口口① |①-②-|
②口口③ |③-④⑤|
⑧④⑤口 |--⑥-|
⑥口口⑦ |⑦-⑧-|
25
口口口口 |①---|
口③②口 |--②③|
口口口① |----|
口④口口 |--④-|
26
口②②口 |①---|
口口口口 |----|
口④①口 |②---|
口口口③ |③-④-|
27
口②③口 |①-②③|
口口口① |----|
口口口口 |----|
口口口口 |----|
28
口口口口 |----|
口口口口 |----|
口口②口 |----|
①口口口 |①-②-|
29
口③②口 |①-②③|
①⑥口口 |----|
口口⑤口 |----|
口④④口 |④-⑤⑥|
30
口②①口 |①-②③|
⑤口③⑤ |-④-⑤|
口④④口 |----|
口口口口 |----|
31
口口口口 |--①-|
⑦口⑥口 |②-③④|
⑤③④口 |--⑤-|
①口②口 |⑥-⑦-|
32
②③①口 |①-②-|
口⑤④口 |③-④⑤|
口⑦口⑥ |--⑥-|
口口口⑧ |⑦-⑧-|
33
口③②口 |①---|
口口口口 |--②③|
口口口口 |----|
口①口口 |----|
34
④口口口 |----|
③⑤口口 |--①-|
②口口口 |②-③-|
①口口口 |④-⑤-|
35
口①口口 |①---|
口口口口 |----|
口口口口 |----|
口口口口 |----|
36
口口口④ |----|
口口⑤③ |--①-|
口口口② |②-③-|
口口口① |④-⑤-|
37
口口①口 |①---|
口口口口 |----|
口口口口 |----|
口口口口 |----|
38
口④④口 |----|
⑤③③⑤ |--①-|
口②②口 |②-③-|
口①①口 |④-⑤-|
39
口口口口 |①---|
口口口口 |----|
①口口① |----|
口口口口 |----|
40
口④④口 |----|
⑤③③⑤ |--①-|
口②②口 |②-③-|
口①①口 |④-⑤-|
41
①口口① |①---|
口口口口 |----|
口口口口 |----|
口口口口 |----|
42
口②②口 |----|
③①①③ |----|
口④④口 |①-②-|
口口口口 |③-④-|
43
口口口口 |①---|
口口口口 |----|
口口口口 |----|
口①①口 |----|


不確定度: 0

最終更新:2013年05月16日 13:53