めうめうぺったんたん!!
日向美ビタースイーツ♪

BASIC

Level: 4
BPM: 185
Notes: 299

1
口口口口 |----|
口口口口 |----|
口口口口 |----|
口口口口 |----|
2
口口口口 |①---|
口口①口 |----|
口口口口 |----|
口口口口 |----|
3
口口口口 |①---|
口①口口 |----|
口口口口 |----|
口口口口 |----|
4
口口口口 |①---|
口口口口 |----|
口口①口 |----|
口口口口 |----|
5
口口口口 |①---|
口口口口 |----|
口①口口 |----|
口口口口 |----|
6
口口口口 |①---|
口口①口 |----|
口口口口 |----|
口口口口 |----|
7
口口口口 |①---|
口①口口 |----|
口口口口 |----|
口口口口 |----|
8
口口口口 |①---|
口口口口 |----|
口口①口 |----|
口口口口 |----|
9
口口口口 |①---|
口口口口 |----|
口①口口 |----|
口口口口 |----|
10
②口口① |①---|
④口口③ |②---|
口口口口 |③---|
口口口口 |④---|
11
口口口口 |①---|
口口口口 |②---|
②口口① |③---|
④口口③ |④---|
12
口口口口 |①---|
口口口口 |②---|
口④③口 |③---|
口②①口 |④---|
13
口④③口 |①---|
口②①口 |②---|
口口口口 |③---|
口口口口 |④---|
14
②口口① |①---|
④口口③ |②---|
口口口口 |③---|
口口口口 |④---|
15
口口口口 |①---|
口口口口 |②---|
②口口① |③---|
④口口③ |④---|
16
口口口口 |①---|
口②②口 |----|
口①①口 |②---|
口口口口 |----|
17
③口口③ |①---|
②口口② |②---|
①口口① |③---|
口口口口 |----|
18
口①②口 |①---|
口口口口 |----|
口口口口 |②---|
口口口口 |----|
19
口口口口 |①---|
①口口② |②---|
③口口④ |③---|
口口口口 |④---|
20
口口口口 |①---|
口口口口 |----|
口口口口 |②---|
口①②口 |----|
21
口口口口 |----|
口②②口 |①---|
口①①口 |②---|
口口口口 |----|
22
口①②口 |①---|
口口口口 |----|
口口口口 |②---|
口口口口 |----|
23
口口口口 |①---|
①口口② |②---|
③口口④ |③---|
口口口口 |④---|
24
口口口口 |①---|
口②②口 |----|
口①①口 |②---|
口口口口 |----|
25
①口口① |①---|
②口口② |②---|
③口口③ |③---|
口口口口 |----|
26
口口口口 |①---|
口③③口 |②---|
口②②口 |③---|
口①①口 |----|
27
①口口① |①---|
②口口② |②---|
③口口③ |③---|
口口口口 |----|
28
口①①口 |①---|
口②②口 |----|
口口口口 |②---|
口口口口 |----|
29
口口口口 |①---|
口口口口 |----|
口①②口 |②---|
口口口口 |----|
30
口口口口 |①---|
口口口口 |----|
口口口口 |②---|
①口口② |----|
31
①口口② |①---|
口口口口 |----|
口口口口 |②---|
口口口口 |----|
32
口口口口 |①---|
①①②② |②---|
③③④④ |③---|
口口口口 |④---|
33
口口口口 |①---|
口口口口 |----|
口口口口 |②---|
①口口② |----|
34
口口口口 |①---|
口①①口 |----|
口②②口 |②---|
口口口口 |----|
35
①口口口 |①---|
②口口口 |----|
口口口口 |②---|
口口口口 |----|
36
口口口口 |①---|
口口口口 |----|
①口口口 |----|
口口口口 |----|
37
①口口② |①---|
口口口口 |----|
口口口口 |②---|
口口口口 |----|
38
口口口口 |①---|
口①②口 |----|
口口口口 |②---|
口口口口 |----|
39
口口口口 |①---|
口口口口 |----|
口①②口 |②---|
口口口口 |----|
40
口口口口 |①---|
①①②② |②---|
③③④④ |③---|
口口口口 |④---|
41
口口口口 |①---|
口口口口 |----|
口口口口 |②---|
①口口② |----|
42
口口口口 |①---|
口②②口 |----|
口①①口 |②---|
口口口口 |----|
43
①口口口 |①---|
②口口口 |----|
口口口口 |②---|
口口口口 |----|
44
口口口口 |①---|
口口口口 |----|
①口口口 |----|
口口口口 |----|
45
口口口④ |①---|
口口口③ |②---|
口口口② |③---|
口口口① |④---|
46
口口④口 |①---|
口口③口 |②---|
口口②口 |③---|
口口①口 |④---|
47
口④口口 |①---|
口③口口 |②---|
口②口口 |③---|
口①口口 |④---|
48
④④口口 |①---|
③③口口 |②---|
②口口口 |③---|
①口口口 |④---|
49
口口口④ |①---|
口口口③ |②---|
口口口② |③---|
口口口① |④---|
50
口口④口 |①---|
口口③口 |②---|
口口②口 |③---|
口口①口 |④---|
51
口④口口 |①---|
口③口口 |②---|
口②口口 |③---|
口①口口 |④---|
52
口口口口 |①---|
③③口口 |②---|
②口口口 |③---|
①口口口 |----|
53
②口口① |①---|
口口口口 |----|
口口口口 |②---|
口口口口 |----|
54
口口口口 |①---|
口口口口 |----|
口口口口 |②---|
②口口① |----|
55
口口口口 |①---|
口①①口 |----|
口②②口 |②---|
口口口口 |----|
56
①②③口 |----|
口口口口 |①---|
口口口口 |②---|
口口口口 |③---|
57
口口口口 |①---|
口口①① |②---|
口口②② |----|
口口口口 |----|
58
口口口口 |①---|
①①口口 |②---|
②②口口 |----|
口口口口 |----|
59
①①②② |①---|
口口口口 |----|
口口口口 |②---|
口口口口 |----|
60
口口口口 |①---|
口口口口 |----|
口口口口 |②---|
②②①① |----|
61
口口口口 |①---|
口口①① |②---|
口口②② |----|
口口口口 |----|
62
口口口口 |①---|
①①口口 |②---|
②②口口 |----|
口口口口 |----|
63
口口口口 |①---|
口口口口 |----|
口口②口 |②---|
口①口口 |----|
64
口口②口 |①---|
口①口口 |----|
口口口口 |②---|
口口口口 |----|
65
口口口口 |①---|
口口①① |②---|
口口②② |----|
口口口口 |----|
66
口口口口 |①---|
①①口口 |②---|
②②口口 |----|
口口口口 |----|
67
①①②② |①---|
口口口口 |----|
口口口口 |②---|
口口口口 |----|
68
口口口口 |①---|
口口口口 |----|
口口口口 |②---|
②②①① |----|
69
口口口口 |①---|
口①②口 |----|
口口口口 |②---|
口口口口 |----|
70
口口口口 |①---|
口口口口 |----|
口①②口 |②---|
口口口口 |----|
71
②口口② |①---|
口口口口 |----|
口口口口 |②---|
①口口① |----|
72
②口口② |①---|
口口口口 |----|
口口口口 |②---|
①口口① |----|
73
口口口口 |①---|
①口口② |----|
口口口口 |②---|
口口口口 |----|
74
口口口口 |①---|
口口口口 |----|
①口口② |②---|
口口口口 |----|
75
口口口口 |①---|
口①①口 |----|
口②②口 |②---|
口口口口 |----|
76
②口口② |①---|
口口口口 |----|
①口口① |②---|
口口口口 |----|
77
口①②口 |①---|
口口口口 |----|
口口口口 |②---|
口口口口 |----|
78
口口口口 |①---|
①口口② |②---|
③口口④ |③---|
口口口口 |④---|
79
口口口口 |①---|
口口口口 |----|
口口口口 |②---|
口①②口 |----|
80
口口口口 |----|
口②②口 |①---|
口①①口 |②---|
口口口口 |----|
81
口①②口 |①---|
口口口口 |----|
口口口口 |②---|
口口口口 |----|
82
口口口口 |①---|
①口口② |②---|
③口口④ |③---|
口口口口 |④---|
83
口口口口 |①---|
口②②口 |----|
口①①口 |②---|
口口口口 |----|
84
①口口① |①---|
②口口② |②---|
③口口③ |③---|
口口口口 |----|
85
口口口口 |①---|
口③③口 |②---|
口②②口 |③---|
口①①口 |----|
86
①口口① |①---|
②口口② |②---|
③口口③ |③---|
口口口口 |----|
87
④④④④ |①---|
口③③口 |②---|
口②②口 |③---|
口①①口 |④---|
88
口口口口 |----|
口口口口 |----|
口口口口 |----|
口口口口 |----|
89
口口口口 |----|
口口口口 |----|
口口口口 |----|
口口口口 |----|
90
口口口口 |----|
口口口口 |----|
口口口口 |----|
口口口口 |----|
91
口口口口 |----|
口①①口 |----|
口①①口 |①---|
口口口口 |----|


不確定度: 0

最終更新:2013年05月16日 13:52