めうめうぺったんたん!!
日向美ビタースイーツ♪

ADVANCED

Level: 7
BPM: 185
Notes: 673

1
①口口口 |----|
口口口口 |----|
口口口口 |----|
口口口口 |--①-|
2
口①②口 |①-②-|
口③④口 |----|
口⑤口口 |③-④-|
口口口⑥ |⑤-⑥-|
3
⑥口口口 |①-②-|
口④③口 |----|
口口⑤口 |③-④-|
口②①口 |⑤-⑥-|
4
口①②口 |①-②-|
口③④口 |----|
口⑤口口 |③-④-|
口口口口 |⑤---|
5
①口口① |①---|
②口口② |②---|
口口口口
口口口口

⑤口口口
口口口口
③口口③ |③---|
④口口④ |④-⑤-|
6
口①②口 |①-②-|
口③④口 |----|
口⑤口口 |③-④-|
口口口⑥ |⑤-⑥-|
7
⑥口口口 |①-②-|
口④③口 |----|
口口⑤口 |③-④-|
口②①口 |⑤-⑥-|
8
口①②口 |①-②-|
口③④口 |----|
口⑤口口 |③-④-|
口口口口 |⑤---|
9
①口口① |①---|
②口口② |②---|
口口口口
口口口口

⑤口口口
口口口口
③口口③ |③---|
④口口④ |④-⑤-|
10
口①②口 |①-②-|
口③④口 |----|
口⑤口口 |③-④-|
口口口⑥ |⑤-⑥-|
11
⑥口口口 |①-②-|
口④③口 |----|
口口⑤口 |③-④-|
口②①口 |⑤-⑥-|
12
口①②口 |①-②-|
口③④口 |----|
口⑤口口 |③-④-|
口口口口 |⑤---|
13
①口口① |①---|
②口口② |②---|
③口口③ |③---|
④口口④ |④---|
14
口⑦⑧口 |①-②-|
口⑤⑥口 |③-④-|
口③④口 |⑤-⑥-|
口①②口 |⑦-⑧-|
15
①口口② |①---|
①⑤口② |②---|
口口④口 |③-④-|
口③口口 |⑤---|
16
④③③⑤ |①-②-|
④⑥⑥⑤ |--③-|
①口口② |④-⑤-|
①口口② |--⑥-|
17
口⑥⑥口 |①-②-|
⑤口口⑤ |③-④-|
③③④④ |--⑤-|
①①②② |⑥---|
18
①口口① |①---|
口④口口 |--②-|
口口③口 |③-④-|
口②⑤口 |--⑤-|
19
③口口口 |①-②-|
⑤口②④ |--③-|
⑦①口⑥ |④-⑤-|
口口口口 |⑥-⑦-|
20
口口①② |①---|
口口口口 |--②-|
口口口口
口口口口

口口⑥口
⑤口口口
口口④口 |③-④-|
口③口口 |⑤-⑥-|
21
②口口① |----|
口②①口 |①---|
口①②口 |②---|
①口口② |----|
22
口①①口 |①---|
口④口口 |--②-|
口口③口 |③-④-|
口②⑤口 |--⑤-|
23
③口口口 |①-②-|
⑤口②④ |--③-|
⑦①口⑥ |④-⑤-|
口口口口 |⑥-⑦-|
24
口②②口 |①---|
口④④口 |②---|
口③③口 |③---|
口①①口 |④---|
25
①口口口 |①-②-|
口⑥⑥② |③-④-|
③⑥⑥口 |⑤---|
⑤口口④ |⑥---|
26
口口口① |①-②-|
②⑥⑥口 |③-④-|
口⑥⑥③ |⑤---|
④口口⑤ |⑥---|
27
①口口口 |①-②-|
口⑥⑥② |③-④-|
③⑥⑥口 |⑤---|
⑤口口④ |⑥---|
28
①口口① |①-②-|
②⑥⑥② |③---|
③⑤⑤③ |④-⑤-|
口④④口 |⑥---|
29
口口口口 |①-②-|
①口口② |③-④-|
⑦口口⑧ |⑤-⑥-|
③⑤⑥④ |⑦-⑧-|
30
口③④口 |①-②-|
口①②口 |③-④-|
⑦口口⑧ |⑤-⑥-|
口⑤⑥口 |⑦-⑧-|
31
口口口④ |①-②-|
①⑤⑧② |③-④-|
口⑦⑥口 |⑤-⑥-|
③口口口 |⑦-⑧-|
32
①①③③ |①-②-|
⑤⑤⑦⑦ |③-④-|
口口⑥⑥ |⑤-⑥-|
④④②② |⑦---|
33
⑦③②口 |①---|
口口⑥口 |②-③-|
①⑤口口 |④-⑤-|
口口④口 |⑥-⑦-|
34
口⑦口口 |--①-|
口③⑥口 |②-③-|
口⑤②口 |④-⑤-|
口①④口 |⑥-⑦-|
35
口口口① |----|
②⑥口口 |①-②-|
口口口③ |③-④-|
④口⑤口 |⑤-⑥-|
36
口口口口 |----|
口口口口 |----|
口口口口 |----|
口口口口 |----|
37
口口口口 |①-②-|
①口口② |③-④-|
⑦口口⑧ |⑤-⑥-|
③⑤⑥④ |⑦-⑧-|
38
口③④口 |①-②-|
口①②口 |③-④-|
⑦口口⑧ |⑤-⑥-|
口⑤⑥口 |⑦-⑧-|
39
口口口④ |①-②-|
①⑤⑧② |③-④-|
口⑦⑥口 |⑤-⑥-|
③口口口 |⑦-⑧-|
40
①①③③ |①-②-|
⑤⑤⑦⑦ |③-④-|
口口⑥⑥ |⑤-⑥-|
④④②② |⑦---|
41
口②口⑦ |①---|
⑥口⑤口 |②-③-|
①④口口 |④-⑤-|
口口③口 |⑥-⑦-|
42
口口①口 |--①-|
口②⑦口 |②-③-|
口⑥③口 |④-⑤-|
④口口⑤ |⑥-⑦-|
43
⑥⑥口③ |----|
②口口⑤ |①-②-|
口口口口 |③-④-|
④口①口 |⑤-⑥-|
44
口口口口 |----|
口口口口 |----|
口口口口 |----|
口口口口 |----|
45
⑦口口⑧ |①-②-|
⑤口口⑥ |③-④-|
③口口④ |⑤-⑥-|
①口口② |⑦-⑧-|
46
口⑦⑧口 |①-②-|
口⑤⑥口 |③-④-|
口③④口 |⑤-⑥-|
口①②口 |⑦-⑧-|
47
口口口口 |①---|
①②②① |----|
①②②① |②---|
口口口口 |----|
48
④①①④ |①---|
①③③① |②---|
②③③② |③---|
口②②口 |④---|
49
⑦口口⑧ |①-②-|
⑤口口⑥ |③-④-|
③口口④ |⑤-⑥-|
①口口② |⑦-⑧-|
50
口⑥⑦口 |①---|
口④⑤口 |②-③-|
口②③口 |④-⑤-|
口①口口 |⑥-⑦-|
51
①口口② |①-②-|
⑤口口⑥ |③-④-|
⑦口口⑧ |⑤-⑥-|
③口口④ |⑦-⑧-|
52
⑤⑤④口 |①-②-|
口③口口 |③-④-|
口口②口 |⑤---|
口①口口 |----|
53
口口④口 |--①-|
口⑤②口 |②-③-|
③口⑥口 |④-⑤-|
⑦①口口 |⑥-⑦-|
54
口④⑤口 |①-②-|
口口③口 |③-④-|
⑥②口口 |⑤-⑥-|
口口⑦① |⑦---|
55
①口口① |①---|
②口口② |--②-|
③口口③ |----|
口口口口 |③---|
56
口口口口 |--①-|
⑥口①⑦ |②-③-|
口④⑤口 |④-⑤-|
②口口③ |⑥-⑦-|
57
①口口② |①-②-|
口①②口 |③-④-|
③⑤⑥④ |--⑤-|
⑦③④口 |⑥-⑦-|
58
口②①口 |①-②-|
②④③① |③-④-|
④口口③
口口口口

口口⑤⑤
口口口口
口口口口 |----|
口口口口 |--⑤-|
59
①①口口 |----|
口口口口 |①---|
口口口口 |②---|
③③②② |③---|
60
口④口口 |①-②-|
⑥口①⑦ |③-④-|
口②⑤③ |--⑤-|
口口口口 |⑥-⑦-|
61
①口口② |①-②-|
口①②口 |③-④-|
③⑤⑥④ |--⑤-|
⑦③④口 |⑥-⑦-|
62
口②①口 |①-②-|
②④③① |③-④-|
④口口③ |----|
口口⑤口 |--⑤-|
63
③口口④ |①-②-|
口⑦⑧口 |③-④-|
口⑤⑥口 |⑤-⑥-|
①口口② |⑦-⑧-|
64
口②①口 |①-②-|
⑥口口⑦ |③-④-|
④口⑤③ |--⑤-|
③①②④ |⑥-⑦-|
65
①口口② |①-②-|
口①②口 |③-④-|
③⑤⑥④ |--⑤-|
⑦③④口 |⑥-⑦-|
66
口②①口 |①-②-|
②④③① |③-④-|
④口口③
口口口口

口口⑤⑤
口口口口
口口口口 |----|
口口口口 |--⑤-|
67
①①口口 |----|
口口口口 |①---|
口口口口 |②---|
③③②② |③---|
68
口口口口 |①-②-|
口④①口 |③-④-|
口②③口 |----|
口口口口 |----|
69
①口口② |----|
①口口② |①---|
口③口口 |②---|
口③口口 |③---|
70
④②③④ |①---|
口口口口 |--②-|
口口①口 |③---|
口口①口 |--④-|
71
⑤②口⑤ |----|
口口③口 |①---|
口④口口 |②-③-|
口①①口 |④-⑤-|
72
口②口口 |----|
口口③口 |①---|
口④口口 |②-③-|
口①①口 |④---|
73
②口①① |①---|
②②口① |②---|
④口③③ |③---|
④④口③ |④---|
74
②口①① |①---|
②②口① |②---|
④口③③ |③---|
④④口③ |④---|
75
口口⑤② |①-②-|
④口口口 |--③-|
口①口③ |④-⑤-|
⑥口口口 |--⑥-|
76
口④口口 |①-②-|
口⑥⑥③ |③-④-|
⑤②口⑤ |--⑤-|
口口口① |⑥---|
77
①口口① |①---|
口④口口 |--②-|
口口③口 |③-④-|
口②⑤口 |--⑤-|
78
③口口口 |①-②-|
⑤口②④ |--③-|
⑦①口⑥ |④-⑤-|
口口口口 |⑥-⑦-|
79
口口①② |①---|
口口口口 |--②-|
口口口口
口口口口

口口⑥口
⑤口口口
口口④口 |③-④-|
口③口口 |⑤-⑥-|
80
②口口① |----|
口②①口 |①---|
口①②口 |②---|
①口口② |----|
81
口①①口 |①---|
口④口口 |--②-|
口口③口 |③-④-|
口②⑤口 |--⑤-|
82
口③口④ |①-②-|
⑤口②⑥ |③-④-|
⑦①口⑧ |⑤-⑥-|
口口口口 |⑦-⑧-|
83
口②②口 |①---|
口④④口 |②---|
口③③口 |③---|
口①①口 |④---|
84
①口口口 |①-②-|
口⑥⑥② |③-④-|
③⑥⑥口 |⑤---|
⑤口口④ |⑥---|
85
口口口① |①-②-|
②⑥⑥口 |③-④-|
口⑥⑥③ |⑤---|
④口口⑤ |⑥---|
86
①口口口 |①-②-|
口⑥⑥② |③-④-|
③⑥⑥口 |⑤---|
⑤口口④ |⑥---|
87
②⑤⑤① |①-②-|
②口口① |③-④-|
④⑥⑥③ |⑤---|
④口口③ |⑥---|
88
口口口口 |----|
口口口口 |----|
口口口口 |----|
口口口口 |----|
89
口口口口 |----|
口口口口 |----|
口口口口 |----|
口口口口 |----|
90
口口口口 |----|
口口口口 |----|
口口口口 |----|
口口口口 |----|
91
口口口口 |----|
口①①口 |----|
口①①口 |①---|
口口口口 |----|


不確定度: 0

最終更新:2013年05月16日 13:52