イブの時代っ!
日向美ビタースイーツ♪

BASIC

Level: 4
BPM: 210
Notes: 297

1
口口口口 |----|
口口口口 |----|
口口口口 |----|
口口口口 |----|
2
口口口口 |----|
口口口口 |----|
口口口口 |----|
口口口口 |----|
3
口口口口 |①---|
口②口口 |----|
口①口口 |②---|
口口口口 |----|
4
口口口口 |①---|
口口②口 |----|
口口①口 |②---|
口口口口 |----|
5
口口口口 |①---|
口②口口 |----|
口①口口 |②---|
口口口口 |----|
6
口口口口 |①---|
口口②口 |----|
口口①口 |②---|
口口口口 |----|
7
口④口口 |--①-|
口③口口 |--②-|
口②口口 |--③-|
口①口口 |--④-|
8
口口①口 |--①-|
口口②口 |--②-|
口口③口 |--③-|
口口口口 |----|
9
口①口口 |--①-|
口②口口 |--②-|
口③口口 |--③-|
口④口口 |--④-|
10
口口口口 |----|
口口口口 |----|
口口口口 |----|
口口口口 |----|
11
口④口口 |--①-|
口③口口 |--②-|
口②口口 |--③-|
口①口口 |--④-|
12
口口①口 |--①-|
口口②口 |--②-|
口口③口 |--③-|
口口口口 |----|
13
口①口口 |--①-|
口②口口 |--②-|
口③口口 |--③-|
口④口口 |--④-|
14
口口①口 |--①-|
口口口口 |----|
口口口口 |----|
口口口口 |----|
15
口口口口 |①---|
口②②口 |----|
口①①口 |----|
口口口口 |②---|
16
口①①口 |----|
口口口口 |----|
口口口口 |①---|
口口口口 |----|
17
口口口口 |----|
口口口口 |----|
口口口口 |----|
口口口口 |----|
18
口①①口 |①---|
口口口口 |----|
口口口口 |----|
口口口口 |----|
19
口口口口 |①---|
口①①口 |----|
口口口口 |----|
口口口口 |----|
20
口口口口 |①---|
②口口② |----|
口①①口 |②---|
口口口口 |----|
21
口口口口 |----|
口口口口 |----|
口口口口 |----|
口口口口 |----|
22
口①①口 |①---|
口口口口 |----|
口口口口 |----|
口口口口 |----|
23
口口口口 |①---|
口①①口 |----|
②口口② |②---|
口口口口 |----|
24
口口口口 |①---|
口口口口 |----|
口口口口 |②---|
①②②① |----|
25
口口口口 |①---|
口口口口 |----|
口①①口 |----|
口口口口 |----|
26
口口口口 |①---|
口①①口 |----|
口口口口 |----|
口口口口 |----|
27
口口口口 |①---|
①口口① |----|
口口口口 |----|
口口口口 |----|
28
口口口口 |①---|
口口口口 |----|
①口口① |----|
口口口口 |----|
29
口口口口 |①---|
④③②① |②---|
口口口口 |③---|
口口口口 |④---|
30
口口口口 |①---|
口口口口 |②---|
①②③④ |③---|
口口口口 |④---|
31
口口口口 |①---|
口①①口 |----|
口②②口 |②---|
口口口口 |----|
32
口口口口 |①---|
口口口口 |----|
口口口口 |----|
口①①口 |----|
33
口口②口 |①---|
口口口口 |----|
口口口口 |②---|
口①①口 |----|
34
口口口口 |①---|
口口①口 |----|
口口②口 |②---|
口口口口 |----|
35
口口口口 |①---|
口口口口 |----|
口口口口 |②---|
口②①口 |----|
36
口口口口 |①---|
口口口口 |----|
口①口口 |----|
口口口口 |----|
37
口①口口 |----|
口口口口 |----|
口口口口 |①---|
口口口口 |----|
38
口口口口 |①---|
口①口口 |----|
口②口口 |②---|
口口口口 |----|
39
口口口口 |①---|
口口口口 |----|
口口口口 |②---|
口①②口 |----|
40
口口口口 |①---|
口口口口 |----|
口口①口 |----|
口口口口 |----|
41
口口口口 |①---|
③④②① |②---|
口口口口 |③---|
口口口口 |④---|
42
口口口口 |①---|
口口口口 |②---|
③④②① |③---|
口口口口 |④---|
43
口口口口 |①---|
③④②① |②---|
口口口口 |③---|
口口口口 |④---|
44
口口口口 |①---|
口口口口 |②---|
③④②① |③---|
口口口口 |④---|
45
口②①口 |①---|
口④③口 |②---|
口口口口 |③---|
口口口口 |④---|
46
口口口口 |①---|
口口口口 |②---|
口②①口 |③---|
口④③口 |④---|
47
口口口口 |①---|
口口口口 |②---|
④口口③ |③---|
②口口① |④---|
48
④口口③ |①---|
②口口① |②---|
口口口口 |③---|
口口口口 |④---|
49
口口口口 |①---|
口①①口 |----|
口口口口 |----|
口口口口 |----|
50
③③口口 |①---|
口口②口 |②---|
口口①口 |③---|
口口口口 |----|
51
口口③③ |①---|
口②口口 |②---|
口①口口 |③---|
口口口口 |----|
52
口①口口 |①---|
口口②口 |②---|
口③口口 |③---|
口口④口 |④---|
53
口口口口 |①---|
口口口口 |----|
口口口口 |----|
口①口口 |----|
54
③③口口 |①---|
口口②口 |②---|
口口①口 |③---|
口口口口 |----|
55
口口③③ |①---|
口②口口 |②---|
口①口口 |③---|
口口口口 |----|
56
口口口口 |①---|
口口口口 |②---|
①③④② |③---|
口口口口 |④---|
57
口口口口 |①---|
口①①口 |----|
口口口口 |----|
口口口口 |----|
58
③③口口 |①---|
口口②口 |②---|
口口①口 |③---|
口口口口 |----|
59
口口③③ |①---|
口②口口 |②---|
口①口口 |③---|
口口口口 |----|
60
口口口口 |①---|
口②②口 |----|
口①①口 |②---|
口口口口 |----|
61
口口口① |①---|
②口口口 |②---|
口口口③ |③---|
④口口口 |④---|
62
口口口口 |①---|
口口口口 |----|
口口口口 |----|
口口口① |----|
63
口口口口 |①---|
口①①口 |----|
口口口口 |----|
口口口口 |----|
64
口①①口 |①---|
口口口口 |----|
口口口口 |----|
口口口口 |----|
65
口口口口 |①---|
口口口口 |----|
口①①口 |----|
口口口口 |----|
66
口口口口 |----|
口口口口 |----|
口②①口 |①---|
口口口口 |②---|
67
口④③口 |①---|
口②①口 |②---|
口口口口 |③---|
口口口口 |④---|
68
②口口① |①---|
④口口③ |②---|
口口口口 |③---|
口口口口 |④---|
69
口口口口 |①---|
口口口口 |②---|
②口口① |③---|
④口口③ |④---|
70
口口口口 |①---|
口口口口 |----|
口口口口 |----|
口①①口 |----|
71
口口口口 |①---|
口口口口 |----|
口①①口 |----|
口口口口 |----|
72
口口口口 |①---|
口①①口 |----|
口口口口 |----|
口口口口 |----|
73
口口口口 |①---|
口口③① |②---|
口口④② |③---|
口口口口 |④---|
74
口口口口 |①---|
③①口口 |②---|
④②口口 |③---|
口口口口 |④---|
75
口口口口 |①---|
口①①口 |----|
口口口口 |----|
口口口口 |----|
76
口口口口 |①---|
口口④② |②---|
口口③① |③---|
口口口口 |④---|
77
口口口口 |①---|
④②口口 |②---|
③①口口 |③---|
口口口口 |④---|
78
口口口口 |①---|
口口④② |②---|
口口③① |③---|
口口口口 |④---|
79
口口口口 |①---|
④②口口 |②---|
③①口口 |③---|
口口口口 |④---|
80
口口口口 |①---|
口口口口 |----|
口①①口 |----|
口口口口 |----|
81
③③口口 |①---|
口口②口 |②---|
口口①口 |③---|
口口口口 |----|
82
口口③③ |①---|
口②口口 |②---|
口①口口 |③---|
口口口口 |----|
83
口①口口 |①---|
口口②口 |②---|
口③口口 |③---|
口口④口 |④---|
84
口口口口 |①---|
口口口口 |----|
口口口口 |----|
口①口口 |----|
85
③③口口 |①---|
口口②口 |②---|
口口①口 |③---|
口口口口 |----|
86
口口③③ |①---|
口②口口 |②---|
口①口口 |③---|
口口口口 |----|
87
口口口口 |①---|
口口口口 |②---|
①③④② |③---|
口口口口 |④---|
88
口口口口 |①---|
口①①口 |----|
口口口口 |----|
口口口口 |----|
89
③③口口 |①---|
口口②口 |②---|
口口①口 |③---|
口口口口 |----|
90
口口③③ |①---|
口②口口 |②---|
口①口口 |③---|
口口口口 |----|
91
口口口口 |①---|
口②②口 |----|
口①①口 |②---|
口口口口 |----|
92
口口口① |①---|
②口口口 |②---|
口口口③ |③---|
④口口口 |④---|
93
口口口口 |①---|
口口口口 |----|
口口口口 |----|
口口口① |----|
94
口口口口 |①---|
口①①口 |----|
口口口口 |----|
口口口口 |----|
95
口①①口 |①---|
口口口口 |----|
口口口口 |----|
口口口口 |----|
96
口口口口 |①---|
口口口口 |----|
口①①口 |----|
口口口口 |----|
97
口口口口 |----|
口口口口 |----|
口②①口 |①---|
口口口口 |②---|
98
口④③口 |①---|
口②①口 |②---|
口口口口 |③---|
口口口口 |④---|
99
②口口① |①---|
④口口③ |②---|
口口口口 |③---|
口口口口 |④---|
100
口口口口 |①---|
口口口口 |②---|
②口口① |③---|
④口口③ |④---|
101
口口口口 |①---|
口口口口 |----|
口口口口 |----|
口①①口 |----|
102
口口口口 |①---|
口口口口 |----|
口①①口 |----|
口口口口 |----|
103
口口口口 |①---|
口①①口 |----|
口口口口 |----|
口口口口 |----|
104
口口口口 |----|
口口口口 |----|
口口口口 |----|
口口口口 |----|
105
口口口口 |①---|
口①①口 |----|
口①①口 |----|
口口口口 |----|


不確定度: 0

最終更新:2013年05月16日 13:51