イブの時代っ!
日向美ビタースイーツ♪

ADVANCED

Level: 7
BPM: 210
Notes: 371

1
口口口口 |----|
口口口口 |----|
口口口口 |----|
口口口口 |----|
2
口口口口 |----|
口口口口 |----|
口口口口 |----|
口口口口 |----|
3
②口口口 |①---|
口④口③ |②---|
①口口口 |③---|
口口口口 |④---|
4
口口口② |①---|
③口④口 |②---|
口口口① |③---|
口口口口 |④---|
5
⑤③④⑤ |①---|
口口口口 |②---|
口口②口 |③-④-|
口①口口 |--⑤-|
6
口口口口 |----|
口口口口 |①---|
口口口口 |②---|
口①②③ |③---|
7
③口口⑤ |①-②-|
口口②口 |--③-|
①口④口 |--④-|
口口口口 |--⑤-|
8
口口口口 |--①-|
口口①口 |--②-|
口②口口 |--③-|
③口口口 |----|
9
口口口③ |①-②-|
口口④口 |--③-|
②⑤口口 |--④-|
口口口① |--⑤-|
10
口口口口 |----|
口口口口 |----|
口口口口 |----|
口口口口 |----|
11
口口口口 |①-②-|
④口口口 |----|
②口口③ |③-④-|
口口口① |----|
12
口④口口 |①-②-|
口口③口 |③-④-|
口②口⑤ |--⑤-|
口口①口 |----|
13
口④口口 |①-②-|
口口⑤口 |--③-|
②⑥③口 |--④-|
口口口① |⑤-⑥-|
14
口口口口 |--①-|
口②口口 |②---|
口口口口 |----|
口口①口 |----|
15
口③③口 |①-②-|
口④④口 |----|
口①①口 |----|
口②②口 |③-④-|
16
口口口口 |----|
①口口① |----|
②口口② |①-②-|
口口口口 |----|
17
口口口口 |----|
口④③口 |--①-|
口②①口 |-②--③-|
口口口口 |--④---|
18
口口①口 |-①----|
③口口② |----|
口口口④ |②---③-|
口口口口 |--④---|
19
口口口口 |①---|
口③②口 |----|
①口④口 |②---③-|
口口口口 |--④---|
20
口口②口 |①---|
口口口口 |----|
口①口口 |②---|
口口口口 |----|
21
口口口口 |----|
口口③口 |----|
口②①口 |①--②|
口口口口 |-③--|
22
口口口口 |①---|
③①口口 |----|
口口口② |②---|
口口口口 |③---|
23
②口口① |①---|
口口口口 |----|
口口口口 |②---|
口口口口 |----|
24
口口口口 |①---|
口口口① |----|
②口口口 |②---|
口口口口 |----|
25
口口口⑤ |----|
口④③口 |①-②-|
口②①口 |③-④-|
口口口口 |--⑤-|
26
①③口口 |--①-|
口口口④ |--②-|
口口②口 |③---|
口口口口 |④---|
27
口口口口 |----|
口②①口 |①-②-|
口④③口 |③-④-|
口口口⑤ |--⑤-|
28
口口口口 |--①-|
口③口口 |--②-|
口口口④ |③---|
①口②口 |④---|
29
口口④口 |①---|
口口③口 |②---|
口①口口 |③---|
口②口口 |④---|
30
口口口口 |①---|
口口口口 |----|
口①①口 |②---|
口②②口 |----|
31
口口口口 |①---|
口①①口 |----|
口②②口 |②---|
口口口口 |----|
32
口口口口 |①---|
口口口口 |----|
口口口口 |----|
口①①口 |----|
33
口口①① |----|
口口口口 |----|
口口口口 |①---|
口口口口 |----|
34
口口口口 |①---|
口口①① |----|
口口②② |②---|
口口口口 |----|
35
②口口② |①---|
口口口口 |--②-|
口③③口 |----|
口口①① |③---|
36
口①①口 |①---|
口口口口 |----|
口口口口 |----|
口口口口 |----|
37
口口口口 |----|
口口口口 |----|
口口口口 |①---|
①①口口 |----|
38
口口口口 |①---|
②②口口 |----|
①①口口 |②---|
口口口口 |----|
39
①①口口 |①---|
⑤口口④ |②-③-|
口③口口 |--④-|
口口②口 |--⑤-|
40
口口口口 |----|
口口口口 |----|
口口口口 |----|
口口口口 |----|
41
口口口① |----|
口口口① |----|
口口口口 |①---|
口口口口 |----|
42
口口①口 |①---|
口口①口 |----|
口②口口 |②---|
口②口口 |----|
43
⑤口口④ |①---|
口③口口 |②-③-|
①口②口 |--④-|
①口口口 |--⑤-|
44
口口口口 |----|
口口口口 |----|
口口口① |----|
口口口口 |①---|
45
①①口口 |①---|
口②②口 |--②-|
③口口口 |----|
口口口口 |③---|
46
口口①① |①---|
口口口口 |--②-|
③②②③ |----|
口口口口 |③---|
47
③口口② |①---|
口①①口 |--②-|
口口口口 |③---|
口口口口 |----|
48
口口口口 |----|
口口口口 |----|
口口口口 |----|
口口口口 |----|
49
口口口口 |①--②|
①口口① |--③-|
②口口② |----|
③口口③ |----|
50
口③口口 |①-②-|
③口口口 |--③-|
口口②口 |----|
口口①口 |----|
51
口口③口 |①-②-|
口口口③ |--③-|
口②口口 |----|
口①口口 |----|
52
口口⑤口 |①---|
口①④口 |②-③-|
口口③口 |--④-|
口口②口 |--⑤-|
53
口口口口 |----|
口口口口 |----|
口口口口 |----|
口口口口 |----|
54
口③口口 |①-②-|
③口口口 |--③-|
口口②口 |----|
口口①口 |----|
55
口口③口 |①-②-|
口口口③ |--③-|
口②口口 |----|
口①口口 |----|
56
④口口口 |①---|
口口①⑤ |②-③-|
口口③口 |--④-|
口②口口 |--⑤-|
57
口口口口 |----|
口口口口 |----|
口口口口 |----|
口口口口 |----|
58
口③口口 |①-②-|
③口口口 |--③-|
口口②口 |----|
口口①口 |----|
59
口口③口 |①-②-|
口口口③ |--③-|
口②口口 |----|
口①口口 |----|
60
口②②口 |①---|
口口口口 |----|
口口口口 |②---|
口①①口 |----|
61
①口口① |①---|
③口口③ |②---|
②口口② |③---|
④口口④ |④---|
62
口口口口 |①---|
口口口口 |----|
口口②口 |----|
口①①口 |②---|
63
口口口口 |①---|
口①口口 |----|
口口口口 |----|
口口②口 |②---|
64
口③④口 |①---|
口①②口 |②-③-|
口⑤口口 |--④-|
口口口口 |--⑤-|
65
口口口口 |----|
口口口口 |----|
口口口口 |----|
口口口口 |----|
66
口③口口 |----|
口②口口 |----|
口口①口 |①---|
口口口口 |②-③-|
67
口口口口 |----|
口②口① |----|
口口口口 |①---|
口口口口 |②---|
68
口口口口 |①---|
口口口口 |②---|
口②③① |③---|
口口④口 |④---|
69
①口口① |①---|
②口口② |----|
口口口口 |②---|
口口口口 |----|
70
口口口口 |①---|
口口口口 |----|
口口口口 |----|
①口口① |----|
71
口口口口 |--①-|
③①①② |----|
⑤①①④ |②-③-|
口口口口 |④-⑤-|
72
口口口口 |----|
口①①口 |----|
口口口口 |--①-|
口口口口 |----|
73
口口口口 |①---|
②口口① |②---|
④口口③ |③---|
口口口口 |④---|
74
口口口口 |①---|
口②①口 |②---|
口④③口 |③---|
口口口口 |④---|
75
口口口口 |①---|
口口口口 |②---|
口口口口 |----|
口②①口 |----|
76
口口口口 |①---|
④口口③ |②---|
②口口① |③---|
口口口口 |④---|
77
②④口① |①---|
口口口口 |②---|
口口③口 |--③-|
口口口口 |--④-|
78
口口口口 |----|
口②①口 |----|
口口口口 |①---|
口口口口 |②---|
79
口口口口 |①---|
口口口口 |②---|
口②①口 |③---|
口④③口 |④---|
80
口口口口 |①--②|
①口口① |--③-|
②口口② |----|
③口口③ |----|
81
口③口口 |①-②-|
③口口口 |--③-|
口口②口 |----|
口口①口 |----|
82
口口③口 |①-②-|
口口口③ |--③-|
口②口口 |----|
口①口口 |----|
83
口口⑤口 |①---|
口①④口 |②-③-|
口口③口 |--④-|
口口②口 |--⑤-|
84
口口口口 |----|
口口口口 |----|
口口口口 |----|
口口口口 |----|
85
口③口口 |①-②-|
③口口口 |--③-|
口口②口 |----|
口口①口 |----|
86
口口③口 |①-②-|
口口口③ |--③-|
口②口口 |----|
口①口口 |----|
87
④口口口 |①---|
口口①⑤ |②-③-|
口口③口 |--④-|
口②口口 |--⑤-|
88
口口口口 |----|
口口口口 |----|
口口口口 |----|
口口口口 |----|
89
口③口口 |①-②-|
③口口口 |--③-|
口口②口 |----|
口口①口 |----|
90
口口③口 |①-②-|
口口口③ |--③-|
口②口口 |----|
口①口口 |----|
91
口②②口 |①---|
口口口口 |----|
口口口口 |②---|
口①①口 |----|
92
①口口① |①---|
③口口③ |②---|
②口口② |③---|
④口口④ |④---|
93
口口口口 |①---|
口口口口 |----|
口口②口 |----|
口①①口 |②---|
94
口口口口 |①---|
口①口口 |----|
口口口口 |----|
口口②口 |②---|
95
口③④口 |①---|
口①②口 |②-③-|
口⑤口口 |--④-|
口口口口 |--⑤-|
96
口口口口 |----|
口口口口 |----|
口口口口 |----|
口口口口 |----|
97
口③口口 |----|
口②口口 |----|
口口①口 |①---|
口口口口 |②-③-|
98
口口口口 |----|
②口口① |----|
口口口口 |①---|
口口口口 |②---|
99
口口口口 |①---|
口口口口 |②---|
口②①口 |③---|
口④③口 |④---|
100
①口口① |①---|
②口口② |----|
口口口口 |②---|
口口口口 |----|
101
口口口口 |①---|
口口口口 |----|
口口口口 |----|
①口口① |----|
102
口口口口 |--①-|
③①①② |----|
⑤①①④ |②-③-|
口口口口 |④-⑤-|
103
口口口口 |①---|
口口口口 |----|
口②口口 |②---|
口口①口 |----|
104
口②口口 |①---|
口口①口 |----|
口口口口 |②---|
口口口口 |----|
105
口口口口 |①---|
口口口口 |----|
口①①口 |----|
口口口口 |----|


不確定度: 0

最終更新:2013年05月16日 13:51