此岸の戯事
Akhuta

BASIC

Level: 5
BPM: 195
Notes: 332

1
口口口口 |----|
口口口口 |----|
口口口口 |----|
口口口口 |----|
2
口口口口 |①---|
口①口口 |--②-|
口口②口 |----|
口③口口 |③---|
3
口口口口 |①---|
④③②① |②---|
口口口口 |③---|
口口口口 |④---|
4
口口口口 |①---|
口②口口 |--②-|
口口①口 |----|
口口口口 |----|
5
口口口口 |①---|
口口②口 |--②-|
口①口口 |----|
口口口口 |----|
6
口口口口 |①---|
口②口口 |--②-|
口口①口 |----|
口口口口 |----|
7
口口口口 |①---|
③②②③ |②---|
④①①④ |③---|
口口口口 |④---|
8
口口口口 |①---|
口②口口 |--②-|
口口①口 |----|
口口口口 |----|
9
口口口口 |①---|
口口②口 |--②-|
口①口口 |----|
口口口口 |----|
10
口口口口 |①---|
口②口口 |--②-|
口口①口 |----|
口口口口 |----|
11
口口口① |①---|
口口②口 |②---|
口③口口 |③---|
④口口口 |④---|
12
口口口口 |①---|
口②口口 |--②-|
口口③口 |----|
口①①口 |③---|
13
口口口口 |①---|
口口②口 |--②-|
口③口口 |----|
口①①口 |③---|
14
口口口口 |①---|
②口口口 |--②-|
口口③口 |----|
①口口① |③---|
15
口口口① |①---|
口口②口 |②---|
口③口口 |③---|
④口口口 |④---|
16
口口口口 |①---|
口②口口 |--②-|
口口③口 |----|
口①①口 |③---|
17
口口口口 |①---|
②口口② |----|
①口口① |②---|
口口口口 |----|
18
口口口口 |①---|
口②②口 |----|
口①①口 |②---|
口口口口 |----|
19
口口口口 |①---|
③口口② |②---|
③①①② |③---|
口口口口 |----|
20
口口口口 |①---|
口①口口 |----|
口②口口 |②---|
口口口口 |----|
21
口口口口 |①---|
口口①口 |----|
口口②口 |②---|
口口口口 |----|
22
口口口口 |①---|
①口口口 |----|
②口口口 |②---|
口口口口 |----|
23
口口口口 |①---|
口口口① |----|
口口口② |②---|
口口口口 |----|
24
口口口口 |①---|
口①口口 |----|
口②口口 |②---|
口口口口 |----|
25
口口口口 |①---|
口口①口 |----|
口口②口 |②---|
口口口口 |----|
26
口口口口 |①---|
口口口口 |----|
口口口口 |②---|
口①②口 |----|
27
口口口口 |①---|
①口口① |②---|
②口口② |③---|
③口口③ |----|
28
口口口口 |①---|
口①口口 |----|
口②口口 |②---|
口口口口 |----|
29
口口口③ |①---|
口口口② |②---|
口口口① |③---|
口口口口 |----|
30
口口口口 |①---|
口口①口 |----|
口口②口 |②---|
口口口口 |----|
31
③口口口 |①---|
②口口口 |②---|
①口口口 |③---|
口口口口 |----|
32
口口口口 |①---|
口①口口 |----|
口②口口 |②---|
口口口口 |----|
33
口口口③ |①---|
口口口② |②---|
口口口① |③---|
口口口口 |----|
34
口口口口 |①---|
口口口口 |----|
口口口口 |②---|
口①②口 |----|
35
口口口口 |①---|
①口口① |②---|
②口口② |③---|
③口口③ |----|
36
口口口口 |①---|
口②口口 |----|
口①口口 |②---|
口口口口 |----|
37
口口口口 |①---|
口口①口 |----|
口②②口 |②---|
口口口口 |----|
38
口口口口 |①---|
②口口口 |----|
①口口口 |②---|
口口口口 |----|
39
口口口口 |①---|
口口口① |----|
②口口② |②---|
口口口口 |----|
40
口口口口 |①---|
口②口口 |----|
口①口口 |②---|
口口口口 |----|
41
口口口口 |①---|
口口①口 |----|
口口②口 |②---|
口口口口 |----|
42
口口口口 |①---|
④③口口 |②---|
①②口口 |③---|
口口口口 |④---|
43
口口口口 |①---|
口口③④ |②---|
口口②① |③---|
口口口口 |④---|
44
口口口口 |①---|
口②④口 |②---|
口①③口 |③---|
口口口口 |④---|
45
口口口口 |①---|
②口口④ |②---|
①口口③ |③---|
口口口口 |④---|
46
口③③口 |①---|
口①①口 |②---|
口④④口 |③---|
口②②口 |④---|
47
③口口③ |①---|
②口口② |②---|
①口口① |③---|
口口口口 |----|
48
口①①口 |①---|
口①①口 |----|
口口口口 |----|
口口口口 |----|
49
口口口口 |①---|
②口口② |----|
口①①口 |②---|
口口口口 |----|
50
口①口口 |①---|
口口②口 |②---|
口③口口 |③---|
口口④口 |④---|
51
口口④口 |①---|
口③口口 |②---|
口口②口 |③---|
口①口口 |④---|
52
口口口口 |①---|
①口口① |----|
口口口口 |----|
口口口口 |----|
53
口口口口 |①---|
②口口② |----|
口①①口 |②---|
口口口口 |----|
54
口口口口 |①---|
口②④口 |②---|
口①③口 |③---|
口口口口 |④---|
55
口口口口 |①---|
①口口① |②---|
②口口② |③---|
③口口③ |----|
56
口①①口 |①---|
口①①口 |----|
口口口口 |----|
口口口口 |----|
57
口口口口 |①---|
②口口② |----|
口①①口 |②---|
口口口口 |----|
58
口①口口 |①---|
口口②口 |②---|
口③口口 |③---|
口口④口 |④---|
59
口口④口 |①---|
口③口口 |②---|
口口②口 |③---|
口①口口 |④---|
60
口口口口 |①---|
①口口① |----|
口口口口 |----|
口口口口 |----|
61
口口口口 |①---|
②口口② |----|
口①①口 |②---|
口口口口 |----|
62
口②④口 |①---|
口口口口 |②---|
口①③口 |③---|
口口口口 |④---|
63
口口口口 |①---|
①口口① |②---|
②口口② |③---|
③口口③ |----|
64
口口口口 |----|
口口口口 |----|
口口口口 |----|
口口口口 |----|
65
①②口口 |①---|
③④口口 |②---|
口口口口 |③---|
口口口口 |④---|
66
口口口口 |①---|
口口口口 |②---|
口口②① |③---|
口口④③ |④---|
67
口口口口 |①---|
口口口口 |②---|
①②口口 |③---|
③④口口 |④---|
68
口口②① |①---|
口③③口 |②---|
口口口口 |③---|
口口口口 |----|
69
口口口口 |①---|
①③口口 |②---|
②④口口 |③---|
口口口口 |④---|
70
口口口口 |①---|
口口③① |②---|
口口④② |③---|
口口口口 |④---|
71
口口口口 |①---|
口口口口 |②---|
口②④口 |③---|
①口口③ |④---|
72
①口口③ |①---|
口②④口 |②---|
口口口口 |③---|
口口口口 |④---|
73
口口口口 |①---|
口口口口 |----|
口①①口 |----|
口口口口 |----|
74
口口口口 |①---|
②口口② |--②-|
口口口口 |----|
口①①口 |----|
75
①口口口 |①---|
口②口口 |②---|
口口③口 |③---|
口口口④ |④---|
76
口口口口 |①---|
①口口③ |②---|
②口口④ |③---|
口口口口 |④---|
77
口口口口 |①---|
口①③口 |②---|
口②④口 |③---|
口口口口 |④---|
78
口口口口 |①---|
②口口② |--②-|
口口口口 |----|
口①①口 |----|
79
②口口② |①---|
口口口口 |--②-|
口①①口 |----|
口口口口 |----|
80
口口口口 |①---|
②口口② |--②-|
口口口口 |----|
口①①口 |----|
81
口口口口 |①---|
③①①③ |②---|
③②②③ |③---|
口口口口 |----|
82
口口口口 |----|
口口①口 |①---|
口口口口 |----|
口口口口 |----|
83
口口口口 |①---|
口①口口 |----|
口口②口 |----|
口口口口 |②---|
84
口口口口 |----|
口口口口 |----|
口①口口 |①---|
口口口口 |----|
85
①口口① |①---|
②口口② |②---|
③口口③ |③---|
④口口④ |④---|
86
①④口口 |①---|
②③口口 |②---|
口口口口 |③---|
口口口口 |④---|
87
口口④① |①---|
口口③② |②---|
口口口口 |③---|
口口口口 |④---|
88
口口口口 |①---|
口口口口 |②---|
①②③④ |③---|
口口口口 |④---|
89
口口口口 |①---|
口口口口 |②---|
口口口口 |③---|
④③②① |④---|
90
口口口口 |①---|
口口口口 |----|
口①①口 |----|
口口口口 |----|
91
口口口口 |①---|
口①①口 |----|
口口口口 |----|
口口口口 |----|
92
④口口④ |①---|
口③③口 |②---|
②口口② |③---|
口①①口 |④---|
93
口①①口 |①---|
②口口② |②---|
口③③口 |③---|
口口口口 |----|


不確定度: 0

最終更新:2013年05月16日 13:49