此岸の戯事
Akhuta

ADVANCED

Level: 9
BPM: 195
Notes: 709

1
口口口口 |----|
口口口口 |----|
口口口口 |----|
口口口口 |----|
2
口口口⑧ |①-②-|
⑥⑤②③ |③-④-|
口口口口 |⑤-⑥-|
口①④⑦ |⑦-⑧-|
3
②⑥④口 |①-②-|
口口口口 |③-④-|
口⑦⑦口 |⑤-⑥-|
①⑤③口 |⑦---|
4
口口口② |①---|
⑥口口④ |②-③-|
⑥⑤口③ |④-⑤-|
①⑤口① |--⑥-|
5
①口③③ |①-②-|
口口口口 |③---|
⑤口②口 |④---|
⑥口④④ |⑤-⑥-|
6
口口口② |①---|
口口口口 |②-③-|
口①①口
口口口③

口口口口
⑤口口④
⑤⑥口口 |④-⑤-|
口⑥口口 |--⑥-|
7
①口③口 |①---|
口①口③ |②---|
④口②口 |③---|
口④口② |④---|
8
④口③③ |①---|
⑤①①口 |②-③-|
⑥口口口 |--④-|
口口口② |⑤-⑥-|
9
口③口口 |①-②-|
⑦口④口 |③-④-|
口②口⑥ |⑤---|
⑤⑤①口 |⑥-⑦-|
10
口口①① |①---|
口口口④ |②-③-|
口③口④ |----|
口③②口 |④---|
11
①⑤⑨⑬ |①②③④|
②⑥⑩⑭ |⑤⑥⑦⑧|
③⑦⑪⑮ |⑨⑩⑪⑫|
④⑧⑫⑯ |⑬⑭⑮⑯|
12
①③③口 |①---|
①口④口 |②-③-|
口口⑤口 |--④-|
②⑥口口 |⑤-⑥-|
13
口口口④ |①-②-|
①口口④ |③---|
③口口② |④---|
③⑤⑤口 |⑤---|
14
①③③口 |①---|
①口④口 |②-③-|
口口⑤口 |--④-|
②⑥口口 |⑤-⑥-|
15
口⑤③② |①-②-|
口⑥口口 |③-④-|
口口口口 |⑤-⑥-|
⑦⑦④① |⑦---|
16
③③口① |①---|
口④口① |②-③-|
口⑤口口 |--④-|
口口⑥② |⑤-⑥-|
17
口⑤⑤口 |①-②-|
③口①② |③-④-|
④口口口 |⑤---|
口口口口 |----|
18
⑧口口④ |①-②-|
③口口⑦ |③-④-|
口⑤①口 |⑤-⑥-|
⑥口口② |⑦-⑧-|
19
口④①口 |①-②-|
④口口口 |③---|
口口口③ |④---|
口②③口 |----|
20
③③①① |①---|
口口口口 |②---|
口口口口 |③---|
④口口② |④---|
21
口⑥①⑥ |①-②-|
口口②口 |③-④-|
口③口⑤ |⑤---|
口④口⑤ |⑥---|
22
⑤口口口 |①---|
口⑥口口 |②-③-|
②口④④ |④---|
①③①口 |⑤-⑥-|
23
口口口① |①---|
口口口① |--②-|
口口②口 |③---|
③③口口 |----|
24
③③①① |①---|
口口口口 |②---|
口口口口 |③---|
④口口② |④---|
25
⑥⑥①口 |①-②-|
口口②口 |③-④-|
口③口⑤ |⑤---|
口④口⑤ |⑥---|
26
④口③口 |①---|
⑤①①③ |②---|
②口口口 |③---|
口②口口 |④-⑤-|
27
口④④口 |①---|
口口口口 |②---|
③口①① |③---|
口③②② |④---|
28
③口口① |①---|
口③①口 |②---|
口口口口 |③---|
④口口② |④---|
29
⑤③②⑤ |①-②-|
④口⑥① |③-④-|
口⑥口口 |⑤---|
口口口口 |⑥---|
30
⑤口⑥口 |①---|
口②口③ |②-③-|
口口④① |④---|
口②①③ |⑤-⑥-|
31
口⑤口⑤ |①-②-|
口口①口 |③-④-|
口②口口 |⑤---|
口③口④ |----|
32
口③①口 |①---|
③口口① |②---|
口口⑤口 |③---|
口④②口 |④-⑤-|
33
①⑥⑥④ |①-②-|
口②③口 |③-④-|
⑤口口⑤ |⑤---|
口口口口 |⑥---|
34
⑥口口④ |①---|
⑤口口③ |②---|
口②②口 |③-④-|
口①①口 |⑤-⑥-|
35
口①①口 |①---|
口口口口 |②---|
③口口② |③---|
③④④② |④---|
36
②口口① |①---|
④②①③ |----|
口口口口 |②---|
口口口口 |③-④-|
37
口口口口 |①---|
口口口口 |--②-|
③①①③ |③---|
②口口② |----|
38
②⑤①① |①---|
③口⑥口 |②-③-|
口口④④ |④---|
口口口口 |⑤-⑥-|
39
口口口口 |①---|
口口口口 |--②-|
①①口口 |③---|
③③口② |----|
40
①①口口 |①---|
口②口口 |--②-|
口口③⑤ |③---|
口口③④ |④-⑤-|
41
②口①① |①---|
口④③④ |--②-|
口⑤③⑤ |③---|
口口口口 |④-⑤-|
42
⑦⑤③① |①---|
口口口口 |②-③-|
①口口口 |④-⑤-|
⑥④②口 |⑥-⑦-|
43
口⑥④② |①-②-|
⑦口口口 |③-④-|
⑦口口口 |⑤-⑥-|
口⑤③① |⑦---|
44
③口口⑥ |①-②-|
口口口口 |③---|
口⑤②口 |④-⑤-|
④口口① |⑥---|
45
口口口⑤ |①---|
①①②② |②---|
④口口口 |③-④-|
③口口③ |⑤---|
46
口①④口 |①-②-|
①⑤②④ |③---|
⑥②⑤③ |④-⑤-|
口⑥③口 |⑥---|
47
②⑤⑤② |①-②-|
③口③口 |③-④-|
口④口④ |⑤---|
①⑥⑥① |⑥---|
48
①口口① |①---|
②口口③ |----|
口③②口 |②---|
②口口③ |③---|
49
口①口⑥ |①-②-|
口口②⑥ |③-④-|
⑤口口③ |⑤---|
⑤口④口 |⑥---|
50
④①⑤⑧ |①-②-|
②口口⑥ |③-④-|
口③⑦口 |⑤-⑥-|
口口口口 |⑦-⑧-|
51
口口口口 |①-②-|
口①②口 |③-④-|
③口口④ |⑤---|
⑤⑤⑥⑥ |⑥---|
52
②口口② |①---|
口口口口 |----|
口①①口 |②---|
③口口③ |③---|
53
④④②口 |①---|
⑤⑤口① |②-③-|
③口口① |④---|
口口口口 |⑤---|
54
⑦⑦③③ |①-②-|
口口口口 |③-④-|
口②⑥口 |⑤-⑥-|
①④⑧⑤ |⑦-⑧-|
55
口口口口 |①-②-|
①⑤⑤④ |③-④-|
③⑤⑤② |⑤---|
口⑥⑥口 |⑥---|
56
①口口① |①---|
②口口③ |----|
口③②口 |②---|
②口口③ |③---|
57
口①口⑥ |①-②-|
口口②⑥ |③-④-|
⑤口口③ |⑤---|
⑤口④口 |⑥---|
58
④①⑤⑧ |①-②-|
②口口⑥ |③-④-|
口③⑦口 |⑤-⑥-|
口口口口 |⑦-⑧-|
59
口口口口 |①-②-|
口①②口 |③-④-|
③口口④ |⑤---|
⑤⑤⑥⑥ |⑥---|
60
②口口② |①---|
口口口口 |----|
口①①口 |②---|
③口口③ |③---|
61
⑥⑥口口 |①-②-|
口③②① |③-④-|
④口⑤口 |⑤---|
口口口口 |⑥---|
62
④④②② |①---|
口口口口 |②---|
口口口口 |③---|
①③①③ |④---|
63
口口口口 |①---|
口①②口 |②---|
①口口② |③---|
口③③口 |----|
64
口口口口 |----|
④③②① |----|
口口口口 |①-②-|
口口口口 |③-④-|
65
④④②② |①---|
口口口口 |②---|
口口口口 |③---|
③③①① |④---|
66
口口口③ |①---|
口口①口 |--②-|
④①口② |③---|
口口口口 |④---|
67
口④②口 |①---|
④口口② |②---|
口口口口 |③---|
③③①① |④---|
68
②口口① |①---|
口④③口 |②-③-|
口口口口 |④---|
口口口口 |----|
69
③③①① |①---|
口口口口 |②---|
口④②口 |③---|
④口口② |④---|
70
口口④口 |①---|
①⑤口① |②-③-|
③口口② |④---|
口口口口 |⑤---|
71
③口口① |①---|
③口口① |②---|
口④②口 |③---|
④口口② |④---|
72
口③②口 |①---|
口③②口 |②-③-|
⑤口口④ |④---|
⑤①①④ |⑤---|
73
口②②口 |①---|
口口口口 |②---|
口①①口 |----|
口①①口 |----|
74
口②②口 |①---|
④口口③ |--②-|
口口口口 |----|
①口口① |③-④-|
75
②口口口 |①-②-|
口④①口 |③-④-|
⑥口③口 |⑤-⑥-|
⑧口⑤⑦ |⑦-⑧-|
76
口口口① |①-②-|
口口③⑧ |③-④-|
口⑤②口 |⑤-⑥-|
口④⑥⑦ |⑦-⑧-|
77
口①口⑤ |①-②-|
⑥口④口 |③-④-|
②口⑦口 |⑤-⑥-|
⑧③口口 |⑦-⑧-|
78
口口④口 |①---|
口③口① |--②-|
口⑤口① |③-④-|
口②⑥口 |⑤-⑥-|
79
口③口口 |①---|
①口④口 |--②-|
①⑥②口 |③-④-|
口⑤口口 |⑤-⑥-|
80
②口①口 |①---|
口⑤口① |--②-|
③口⑥口 |③-④-|
口口口④ |⑤-⑥-|
81
⑤③口④ |①-②-|
⑤口②口 |③-④-|
口口口口 |⑤---|
口①口口 |----|
82
口⑦口⑥ |----|
⑤口②口 |①-②③|
①③口口 |④-⑤-|
①口④口 |⑥-⑦-|
83
⑥口⑦⑨ |①-②③|
⑩②口⑤ |④-⑤-|
口⑧③① |⑥-⑦-|
⑧④口① |⑧-⑨⑩|
84
⑥口口口 |①-②-|
口②口⑦ |③-④-|
⑧口⑤① |⑤-⑥⑦|
口④③⑤ |⑧---|
85
口口口口 |①---|
③①①③ |---②|
③口口③ |----|
口②②口 |③---|
86
口①⑤③ |①-②-|
口口①⑦ |③-④-|
口口④⑧ |⑤-⑥-|
口⑤⑥② |⑦-⑧-|
87
③⑤口口 |①-②-|
⑦①①口 |③-④-|
⑧④口口 |⑤-⑥-|
②⑥口⑤ |⑦-⑧-|
88
⑦⑤①③ |①-②-|
口①⑤口 |③-④-|
口口口口 |⑤-⑥-|
⑧⑥②④ |⑦-⑧-|
89
口口口口 |①-②-|
③③口① |③-④-|
②口口①
口口④口

⑦⑦口口
口口口口
口⑥⑤⑧ |⑤-⑥-|
口口口⑤ |⑦-⑧-|
90
口口口① |①---|
口口口口 |----|
口口口口 |----|
①口口口 |----|
91
①口口口 |①---|
口口口口 |----|
口口口口 |----|
口口口① |----|
92
口④④口 |①---|
②口口② |②---|
口口口口 |③---|
③①①③ |④---|
93
①口口② |①---|
口③③口 |②---|
口③③口 |③---|
口①②口 |----|


不確定度: 0

最終更新:2013年05月16日 13:49