Lifetime Journey
J.Speaks

EXTREME

Level: 8
BPM: 123
Notes: 666

1
口口口口 |----|
口口口口 |----|
口口口口 |----|
口口口口 |----|
2
⑦口口② |①-②-|
⑤口口④ |③-④-|
③口口⑥ |⑤-⑥-|
①口口⑧ |⑦-⑧-|
3
口①⑧口 |①-②-|
口③⑥口 |③-④-|
口⑤④口 |⑤-⑥-|
口⑦②口 |⑦-⑧-|
4
⑦口口② |①-②-|
⑤口口④ |③-④-|
③口口⑥ |⑤-⑥-|
①口口⑧ |⑦-⑧-|
5
口①⑧口 |①-②-|
口③⑥口 |③-④-|
口⑤④口 |⑤-⑥-|
口⑦②口 |⑦-⑧-|
6
口⑥③③ |①---|
⑤口⑤⑤ |②---|
口④②② |③-④-|
①口①① |⑤-⑥-|
7
⑥④③③ |①---|
⑤口⑤⑤ |②---|
口口②② |③-④-|
口口①① |⑤-⑥-|
8
⑤⑤④④ |①-②-|
⑦⑦口⑧ |③-④-|
③③⑦⑥ |⑤-⑥-|
①①②② |⑦-⑧-|
9
口口③② |①-②-|
口口①口 |③-④-|
③③口④
①①口口

⑤⑤口口
⑥⑥⑥⑥
口口口口 |⑤---|
口口⑤⑤ |⑥---|
10
③③⑥口 |①---|
⑤⑤口⑤ |②---|
②②④① |③-④-|
①①口口 |⑤-⑥-|
11
④④⑦② |①---|
⑥⑥③⑥ |②-③-|
②②⑤口 |④-⑤-|
①①口口 |⑥-⑦-|
12
口⑥⑤⑤ |①-②-|
⑦④⑦⑦ |③-④-|
口⑧③③ |⑤-⑥-|
②②①① |⑦-⑧-|
13
⑤④⑤⑤ |①-②-|
⑥⑥⑥⑥ |③-④-|
③口③③ |⑤---|
①②①① |⑥---|
14
口口口口 |①-②-|
口口口口 |③---|
口③③口
②②①①

④④④④
口口口口
⑤口口⑤ |④---|
口口⑥⑥ |⑤-⑥-|
15
③③②② |①-②-|
口口④④ |③-④-|
口口口口
①①口口

口口口口
⑤⑤口口
⑦⑦⑦⑦ |⑤-⑥-|
⑧⑥⑥⑧ |⑦-⑧-|
16
①口口① |①-②-|
③③②② |③-④-|
口口口口
口④④口

口⑤⑤口
口⑧⑧口
⑦口口⑥ |⑤-⑥-|
⑦口口⑥ |⑦-⑧-|
17
②口口② |①---|
③⑥⑥③ |②-③-|
④①①④ |④-⑤-|
⑤口口⑤ |⑥---|
18
④②②④ |①-②-|
口⑤⑤口 |--③-|
口⑤⑤口 |④---|
③①①③ |⑤---|
19
口④④口 |----|
③④④③ |①-②-|
②口口② |③---|
口①①口 |④---|
20
②④④② |①-②-|
口⑤⑤口 |--③-|
口⑤⑤口 |④---|
①③③① |⑤---|
21
④口口④ |--①-|
③⑤⑤③ |②-③-|
②⑤⑤② |④---|
①口口① |⑤---|
22
⑦口口② |①-②-|
⑤口口④ |③-④-|
③口口⑥ |⑤-⑥-|
①口口⑧ |⑦-⑧-|
23
口①⑧口 |①-②-|
口③⑥口 |③-④-|
口⑤④口 |⑤-⑥-|
口⑦②口 |⑦-⑧-|
24
⑦口口② |①-②-|
⑤口口④ |③-④-|
③口口⑥ |⑤-⑥-|
①口口⑧ |⑦-⑧-|
25
口①⑧口 |①-②-|
口③⑥口 |③-④-|
口⑤④口 |⑤-⑥-|
口⑦②口 |⑦-⑧-|
26
⑤口口⑤ |--①-|
⑥③④⑥ |②-③-|
⑦①②⑦ |④-⑤-|
口口口口 |⑥-⑦-|
27
⑥口口⑥ |--①-|
口口⑤口 |②-③-|
口④③口 |④-⑤-|
口②①口 |⑥---|
28
口⑦⑦口 |--①-|
⑥⑥⑤⑤ |②-③-|
④④③③ |④-⑤-|
②②①① |⑥-⑦-|
29
⑦⑥⑥⑦ |--①-|
口⑤⑤口 |②-③-|
①④④① |④-⑤-|
②③③② |⑥-⑦-|
30
口⑤⑤口 |--①-|
⑦⑥⑥⑦ |②-③-|
④④③③ |④-⑤-|
②②①① |⑥-⑦-|
31
⑤口口⑤ |--①-|
口口口口 |②-③-|
③②②③ |④---|
④①①④ |⑤---|
32
④④⑤⑤ |--①-|
⑥⑥③③ |②-③-|
②②⑦⑦ |④-⑤-|
口口①① |⑥-⑦-|
33
②口口② |①---|
口③③口 |--②-|
④口口④ |--③-|
①①①① |--④-|
34
口口④⑤ |--①-|
口口⑥③ |②-③-|
口口②⑦ |④-⑤-|
口口口① |⑥-⑦-|
35
⑤④口口 |--①-|
③⑥口口 |②-③-|
⑦②口口 |④-⑤-|
①口口口 |⑥-⑦-|
36
口口口口 |--①-|
口④③口 |②-③-|
口②⑤口 |--④-|
口⑥①口 |⑤-⑥-|
37
口④⑤口 |--①-|
口⑥③口 |②-③-|
口②⑦口 |④-⑤-|
口口①口 |⑥-⑦-|
38
⑤⑤口⑤ |①-②-|
⑦⑦④⑥ |③-④-|
③③⑧③ |⑤-⑥-|
①①②⑦ |⑦-⑧-|
39
④④⑦④ |①---|
⑥⑥③⑥ |②-③-|
②②⑤② |④-⑤-|
①①①口 |⑥-⑦-|
40
⑤口⑤⑤ |①-②-|
⑦④⑦⑦ |③-④-|
③⑥③③ |⑤-⑥-|
口②①① |⑦---|
41
⑦⑦⑦⑦ |①-②-|
⑥⑤⑤⑥ |③-④-|
②③③④ |⑤-⑥-|
口①①口 |⑦---|
42
④④③③ |①---|
⑥⑥⑤⑤ |②---|
②②②② |③-④-|
①①①① |⑤-⑥-|
43
口口口口 |--①-|
口口口口 |②-③-|
口③③口
②②①①

⑤口口④
⑤口口④
口口口口 |--④-|
口口⑥⑥ |⑤-⑥-|
44
⑦③②⑥ |①-②-|
⑦③②⑥ |③-④-|
⑤⑤④④ |⑤-⑥-|
①①⑧⑧ |⑦-⑧-|
45
口③②口 |①-②-|
口③②口 |③-④-|
口口④④
①①口口

口口口口
口口口口
⑤⑤口口 |⑤---|
口⑥⑥口 |--⑥-|
46
①②②① |①---|
⑤⑤④④ |②-③-|
口口⑥口 |--④-|
③口⑥③ |⑤-⑥-|
47
③③②② |①-②-|
口口口口 |③-④-|
口①口④
口①口④

口口口口
口口口口
⑤⑦⑦口 |⑤---|
⑤⑥⑥口 |⑥-⑦-|
48
①①①① |①---|
口③③口 |②-③-|
口口口口
②口口②

口口口⑤
口口口⑤
口口口口 |--④-|
口④④口 |--⑤-|
49
①③②口 |①-②-|
①③②口 |③-④-|
⑤⑤⑤⑤ |⑤---|
口④④口 |----|
50
口口口口 |①-②-|
口口口口 |③---|
口③③口
②②①①

④④④④
口口口口
⑤口口⑤ |④---|
口口⑥⑥ |⑤-⑥-|
51
③③②② |①-②-|
口口④④ |③-④-|
口口口口
①①口口

口口口口
⑤⑤口口
⑦⑦⑦⑦ |⑤-⑥-|
⑧⑥⑥⑧ |⑦-⑧-|
52
①⑤⑤① |①-②-|
③⑧⑧② |③-④-|
⑦口口⑥ |⑤-⑥-|
⑦④④⑥ |⑦-⑧-|
53
②口口② |①---|
③⑥⑥③ |②-③-|
④①①④ |④-⑤-|
⑤口口⑤ |⑥---|
54
④②②④ |①-②-|
口⑤⑤口 |--③-|
口⑤⑤口 |④---|
③①①③ |⑤---|
55
口④④口 |----|
③④④③ |①-②-|
②口口② |③---|
口①①口 |④---|
56
②④④② |①-②-|
口⑤⑤口 |--③-|
口⑤⑤口 |④---|
①③③① |⑤---|
57
④口口④ |--①-|
③⑤⑤③ |②-③-|
②⑤⑤② |④---|
①口口① |⑤---|

不確定度: 0

最終更新:2014年08月01日 22:51