にんじゃりばんばん
きゃりーぱみゅぱみゅ

EXTREME

Level: 8
BPM: 130
Notes: 611

1
口口口口 |----|
口口口口 |----|
口口口口 |----|
口口口口 |----|
2
口口⑧④ |①-②-|
口口⑦③ |③-④-|
口⑤⑥② |⑤-⑥-|
①口⑤① |⑦-⑧-|
3
口⑤⑧④ |①-②-|
①口⑦③ |③-④-|
口口⑥② |⑤-⑥-|
口口⑤① |⑦-⑧-|
4
口口⑧④ |①-②-|
口口⑦③ |③-④-|
⑤口⑥② |⑤-⑥-|
口①⑤① |⑦-⑧-|
5
⑤口⑧④ |①-②-|
口①⑦③ |③-④-|
口口⑥② |⑤-⑥-|
口口⑤① |⑦-⑧-|
6
口①⑧④ |①-②-|
口口⑦③ |③-④-|
口口⑥② |⑤-⑥-|
⑤⑤⑤① |⑦-⑧-|
7
⑦口⑧④ |①-②-|
⑤⑤⑦③ |③-④-|
①①⑥② |⑤-⑥-|
口口⑤① |⑦-⑧-|
8
口①⑧④ |①-②-|
口口⑦③ |③-④-|
口口⑥② |⑤-⑥-|
口口⑤① |⑦-⑧-|
9
口口口② |①---|
①口口① |--②-|
口口口口
②口口口

⑤口口口
口④③⑥
⑥③④口 |③-④-|
口口口⑤ |⑤-⑥-|
10
口①①③ |①---|
口口口口 |②-③-|
口②口口
口口口口

口⑥口口
⑧⑥⑤⑦
⑧口④⑦ |④-⑤⑥|
口④④口 |⑦-⑧-|
11
①③⑤① |①---|
⑧⑥⑤⑦ |②-③-|
⑧④口⑦ |④-⑤⑥|
口④④② |⑦-⑧-|
12
①①口口 |①---|
口口②口 |②---|
口口②口
口口口口

⑤口口口
口⑤口口
③口口④ |③---|
口③④口 |④-⑤-|
13
口②③① |①-②-|
②口①③ |③-④-|
口④口口
④口口口

口口口⑨
口口口口
⑥口⑤⑦ |⑤-⑥⑦|
口⑧口⑤ |⑧-⑨-|
14
口①③口 |①---|
①①①口 |②-③-|
口①口口
②口口口

口⑥口口
⑧⑥⑤⑦
⑧口④⑦ |④-⑤⑥|
口④④口 |⑦-⑧-|
15
①③口① |①---|
口口口口 |②-③-|
口口口口
口口口②

⑧口口口
口⑧⑦口
口④④⑤ |④-⑤⑥|
⑥口口口 |⑦-⑧-|
16
口口①① |①---|
⑤口口口 |②---|
②②口④ |③---|
口口③③ |④-⑤-|
17
②口③① |①-②-|
口②①口 |③-④-|
④口③口
口④口口

口口口⑧
⑥口⑧⑦
口⑧口口 |⑤-⑥⑦|
⑧口⑤⑤ |⑧---|
18
③①①口 |①---|
口口口口 |②-③-|
口口口口
口口口②

口⑥口口
⑧⑥⑤⑦
⑧口④⑦ |④-⑤⑥|
口④④口 |⑦-⑧-|
19
①③⑤① |①---|
⑧⑥⑤⑦ |②-③-|
⑧④口⑦ |④-⑤⑥|
口④④② |⑦-⑧-|
20
①②③① |①---|
口口口口 |②---|
口⑤口口 |③---|
口③②④ |④-⑤-|
21
口口口① |①-②-|
②口口口 |③-④-|
口口口③
④口口口

口口口口
⑧口口⑨
口口⑦口 |⑤-⑥⑦|
口⑥⑤口 |⑧-⑨-|
22
③口口② |①---|
⑧口⑤口 |②-③-|
⑥④④口 |④-⑤⑥|
①口⑦① |⑦-⑧-|
23
③口口① |①---|
口口口口 |②-③-|
口口②口
口口口口

口口④⑧
⑤口口口
口口口⑥ |④-⑤⑥|
⑦口口口 |⑦-⑧-|
24
口①口口 |①---|
②①①口 |②---|
②②③⑤ |③---|
④口③③ |④-⑤-|
25
口①口口 |①-②-|
口口②口 |③-④-|
口③口口 |⑤---|
⑤口④口 |----|
26
②⑨③① |①-②-|
⑦④⑩⑧ |③④⑤⑥|
口⑪⑤口 |⑦-⑧-|
口⑥⑫口 |⑨⑩⑪⑫|
27
口⑨③口 |①-②-|
口④⑩口 |③④⑤⑥|
②⑪⑤① |⑦-⑧-|
⑦⑥⑫⑧ |⑨⑩⑪⑫|
28
⑨口⑧⑩ |①-②-|
④②口③ |③④⑤⑥|
⑥口①⑤ |⑦-⑧-|
⑪⑦口⑫ |⑨⑩⑪⑫|
29
口口口口 |①-②-|
口④③① |③④⑤⑥|
②⑥⑤口
口口口口

⑦⑧⑨⑩
⑱口口⑪
⑰口口⑫ |⑦⑧⑨⑩⑪⑫|
⑯⑮⑭⑬ |⑬⑭⑮⑯⑰⑱|
30
口口口② |①---|
口③①口 |----|
口口口口 |--②-|
口口口④ |③-④-|
31
①口口② |①---|
③口②口 |----|
口③口口 |----|
口口口口 |②-③-|
32
②口口口 |①---|
口②口③ |----|
口口③① |----|
口口①口 |②-③-|
33
口口口口 |①---|
口②②口 |----|
①口口口 |②---|
口①口口 |----|
34
①口口① |①---|
③口口口 |----|
口③口② |----|
口口②口 |②-③-|
35
口④③① |①---|
④②①③ |②---|
②口口口 |③---|
口口口口 |④---|
36
①②②① |①---|
口口口口 |--②-|
口口口口 |----|
口口口口 |----|
37
口口①口 |----|
口②口① |----|
口口②口 |①---|
口口口口 |②---|
38
口口口口 |①---|
口口口口 |----|
①口口口
口①口口

口口口口
口②口③
②口③口 |----|
口口口口 |②-③-|
39
口①①口 |①---|
口口口口 |----|
口口口口
口口口口

口口②口
口③口②
③口④口 |--②-|
口口口④ |③-④-|
40
口口口口 |①---|
口口口③ |----|
②①③口 |----|
①②口口 |②-③-|
41
①口②② |①---|
口①④口 |②---|
口④口口 |③---|
③③口口 |④---|
42
②口口② |①---|
口①口口 |--②-|
口口①口 |③---|
③口口③ |----|
43
口①①口 |①---|
②口口② |----|
口③口口 |②---|
口③口口 |--③-|
44
④口口口 |①-②-|
口口口③ |③-④-|
口口①口
②口①口

口⑨⑤⑧
口口⑧口
⑥⑧口⑦ |⑤-⑥⑦|
⑧口口口 |⑧-⑨-|
45
口口口② |①---|
①口口① |--②-|
口口口口
②口口口

⑤口口口
口④③⑥
⑥③④口 |③-④-|
口口口⑤ |⑤-⑥-|
46
口①①③ |①---|
口口口口 |②-③-|
口②口口
口口口口

口⑥口口
⑧⑥⑤⑦
⑧口④⑦ |④-⑤⑥|
口④④口 |⑦-⑧-|
47
①③⑤① |①---|
⑧⑥⑤⑦ |②-③-|
⑧④口⑦ |④-⑤⑥|
口④④② |⑦-⑧-|
48
①①口口 |①---|
口口②口 |②---|
口口②口
口口口口

⑤口口口
口⑤口口
③口口④ |③---|
口③④口 |④-⑤-|
49
口②③① |①-②-|
②口①③ |③-④-|
口④口口
④口口口

口口口⑨
口口口口
⑥口⑤⑦ |⑤-⑥⑦|
口⑧口⑤ |⑧-⑨-|
50
口①③口 |①---|
①①①口 |②-③-|
口①口口
②口口口

口⑥口口
⑧⑥⑤⑦
⑧口④⑦ |④-⑤⑥|
口④④口 |⑦-⑧-|
51
①③口① |①---|
口口口口 |②-③-|
口口口口
口口口②

⑧口口口
口⑧⑦口
口④④⑤ |④-⑤⑥|
⑥口口口 |⑦-⑧-|
52
口口①① |①---|
⑤口口口 |②---|
②②口④ |③---|
口口③③ |④-⑤-|
53
②口③① |①-②-|
口②①口 |③-④-|
④口③口
口④口口

口口口⑧
⑥口⑧⑦
口⑧口口 |⑤-⑥⑦|
⑧口⑤⑤ |⑧---|
54
③①①口 |①---|
口口口口 |②-③-|
口口口口
口口口②

口⑥口口
⑧⑥⑤⑦
⑧口④⑦ |④-⑤⑥|
口④④口 |⑦-⑧-|
55
①③⑤① |①---|
⑧⑥⑤⑦ |②-③-|
⑧④口⑦ |④-⑤⑥|
口④④② |⑦-⑧-|
56
①②③① |①---|
口口口口 |②---|
口⑤口口 |③---|
口③②④ |④-⑤-|
57
口口口① |①-②-|
②口口口 |③-④-|
口口口③
④口口口

口口口口
⑧口口⑨
口口⑦口 |⑤-⑥⑦|
口⑥⑤口 |⑧-⑨-|
58
③口口② |①---|
⑧口⑤口 |②-③-|
⑥④④口 |④-⑤⑥|
①口⑦① |⑦-⑧-|
59
③口口① |①---|
口口口口 |②-③-|
口口②口
口口口口

口口④⑧
⑤口口口
口口口⑥ |④-⑤⑥|
⑦口口口 |⑦-⑧-|
60
口①口口 |①---|
②①①口 |②---|
②②③⑤ |③---|
④口③③ |④-⑤-|
61
口①口口 |①-②-|
口口②口 |③-④-|
口③口口 |⑤---|
⑤口④口 |----|

不確定度: 0

最終更新:2014年08月01日 22:59