I/O
Ryu☆

EXTREME

Level: 9
BPM: 151
Notes: 680

1
口口口口 |----|
口口口口 |----|
口口口口 |----|
口口口口 |----|
2
④⑧口口 |①-②-|
③⑦口口 |③-④-|
②⑥口口 |⑤-⑥-|
①⑤口口 |⑦-⑧-|
3
口口口口 |①-②-|
口口③④ |③-④-|
⑦口②⑤ |⑤-⑥-|
⑦口①⑥ |⑦---|
4
口口②口 |①-②-|
⑧③口口 |③-④⑤|
⑦口⑤④ |--⑥-|
⑥口①口 |⑦-⑧-|
5
⑧口口② |①-②-|
口③口口 |③-④⑤|
⑥⑦⑤④ |--⑥-|
⑥⑦口① |⑦-⑧-|
6
口口②口 |①-②-|
⑧③口口 |③-④⑤|
⑦口⑤④ |--⑥-|
⑥口①口 |⑦-⑧-|
7
⑨口口③ |①-②-|
⑨④①② |③-④⑤|
口口⑤口 |⑥-⑦⑧|
⑧⑥口⑦ |--⑨-|
8
口口②口 |①-②-|
⑧③口口 |③-④⑤|
⑦口⑤④ |--⑥-|
⑥口①口 |⑦-⑧-|
9
⑩②①口 |①②③④|
⑩④③口 |⑤-⑥⑦|
⑧⑨⑦⑥ |--⑧⑨|
口口⑤口 |--⑩-|
10
口口②口 |①-②-|
⑧③口口 |③-④⑤|
⑦口⑤④ |--⑥-|
⑥口①① |⑦-⑧-|
11
⑨口口② |①-②-|
⑧口⑤④ |③-④⑤|
⑦③口口 |----|
⑥⑥①① |⑥⑦⑧⑨|
12
⑥④⑤③ |①-②-|
口口②② |-③--|
⑥⑤④③ |④--⑤|
口口①① |--⑥-|
13
口口口③ |①-②-|
口口②② |-③--|
口口口③
口口①①

口⑤④口
口口口⑥
口④⑤口 |④--⑤|
口口口⑥ |--⑥-|
14
③⑤④⑥ |①-②-|
②②口口 |-③--|
③④⑤⑥ |④--⑤|
①①口口 |--⑥-|
15
③⑦口口 |①-②-|
②②⑥⑥ |-③--|
③⑤口口 |④-⑤-|
①①④④ |⑥-⑦-|
16
④⑦⑤⑧ |①-②-|
②②口⑥ |③④--|
④⑤⑦⑧ |⑤-⑥⑦|
①①③口 |--⑧-|
17
④口口口 |①-②-|
②②口口 |③④--|
④口口口
①①③口

口⑦⑤⑥
⑧口口口
口⑤⑦口 |⑤-⑥⑦|
⑧口口口 |--⑧-|
18
⑧⑤⑦④ |①-②-|
⑥口②② |③④--|
⑧⑦⑤④ |⑤-⑥⑦|
口③①① |--⑧-|
19
口口口口 |①-②-|
口口③① |-③--|
口口③口
口②②①

⑥⑥口⑤
④④口⑤
口口口口 |④--⑤|
口口口口 |--⑥-|
20
口口②口 |①-②-|
⑧③口口 |③-④⑤|
⑦口⑤④ |--⑥-|
⑥口①① |⑦-⑧-|
21
口口口② |①-②-|
口⑥⑤④ |③-④⑤|
⑥③⑥口 |----|
口⑥口① |⑥---|
22
口⑤口④ |①-②-|
口⑤③③ |③-④⑤|
口口口②
口口①①

⑦口⑥口
口口口口
口口⑧⑧ |-⑥-⑦|
口口口口 |--⑧-|
23
④口⑤口 |①-②-|
③③⑤口 |③-④⑤|
②口口口
①①口口

口⑥口⑦
口口口口
⑧⑧口口 |-⑥-⑦|
口口口口 |--⑧-|
24
口⑤口④ |①-②-|
口⑤③③ |③-④⑤|
口口口②
口口①①

⑦口⑥口
口口口口
口口⑧⑧ |-⑥-⑦|
口口口口 |--⑧-|
25
④口口口 |①-②-|
③③口⑤ |③-④⑤|
②口口口
①①口口

口⑧⑨⑥
口口⑦口
口⑦口口 |-⑥⑦-|
口⑨⑧口 |⑧-⑨-|
26
口⑥⑦③ |①-②-|
④⑥口③ |③-④⑤|
②⑧⑧① |-⑥-⑦|
口口⑤① |--⑧-|
27
③⑦⑥口 |①-②-|
③口⑥④ |③-④⑤|
①⑧⑧② |-⑥-⑦|
①⑤口口 |--⑧-|
28
口⑥⑦③ |①-②-|
④⑥口③ |③-④⑤|
②⑧⑧① |-⑥-⑦|
口口⑤① |--⑧-|
29
⑥⑥口⑤ |①-②-|
③④④⑤ |-③--|
③口口① |④--⑤|
②②口① |--⑥-|
30
口口②口 |①-②-|
⑧③口口 |③-④⑤|
⑦③⑤④ |--⑥-|
⑥口①口 |⑦-⑧-|
31
口③口② |①-②-|
口③口口 |③-④⑤|
⑥⑦⑤④ |--⑥-|
⑥⑦口① |⑦---|
32
口③②口 |①-②-|
⑧③口口 |③-④⑤|
⑦口⑤④ |--⑥-|
⑥口①口 |⑦-⑧-|
33
⑨口口③ |①-②-|
⑨④①② |③-④⑤|
口口⑤口 |⑥-⑦⑧|
⑧⑥口⑦ |--⑨-|
34
口③②口 |①-②-|
⑧③口口 |③-④⑤|
⑦口⑤④ |--⑥-|
⑥口①口 |⑦-⑧-|
35
⑩②①口 |①②③④|
⑩④③口 |⑤-⑥⑦|
⑧⑨⑦⑥ |--⑧⑨|
口口⑤口 |--⑩-|
36
口⑦②口 |①-②-|
口③⑧口 |③-④⑤|
⑨⑩⑤④ |⑥-⑦-|
⑥⑥①① |⑧-⑨⑩|
37
⑦⑧⑫⑪ |①②③④|
⑤⑥⑩⑨ |⑤⑥⑦⑧|
⑬口④③ |⑨⑩⑪⑫|
⑬口②① |⑬---|
38
口口口口 |①---|
⑦①口② |②-③-|
⑥口①③ |④-⑤-|
口⑤④口 |⑥-⑦-|
39
口口口口 |①---|
口②②口 |②---|
口①①口
①口口①

③③③③
口口口口
口口口口 |③---|
④口口⑤ |④-⑤-|
40
口③④口 |①---|
②①①⑤ |②-③-|
口①①口 |④---|
口口口口 |⑤---|
41
③口口③ |①---|
③②②③ |②---|
口②②口 |③---|
①①①① |----|
42
口①①口 |①-②-|
口口②口 |③-④-|
口口③口
口口④口

口口口口
口⑦⑧口
口⑥口口 |⑤-⑥-|
口⑤口口 |⑦-⑧-|
43
口①①口 |①-②-|
②口口口 |③-④-|
③口口口
口④口口

口口⑧口
口口口⑦
口口口⑥ |⑤-⑥-|
口口⑤口 |⑦-⑧-|
44
口口口① |①-②③|
⑬⑫⑪⑩ |④-⑤⑥|
④⑧⑨⑦ |⑦-⑧⑨|
②③⑥⑤ |⑩⑪⑫⑬|
45
口②①口 |①-②-|
口口口口 |③-④-|
④口口③ |⑤---|
口口⑤⑤ |----|
46
口口口口 |----|
口口口口 |----|
口口口口 |----|
口口口口 |----|
47
口口口口 |----|
口口口口 |----|
口口口口 |----|
口口口口 |----|
48
⑥口⑦⑦ |①-②-|
⑤⑧⑨⑨ |③-④-|
口④②① |⑤-⑥⑦|
③口②① |-⑧⑨-|
49
⑦⑦口⑥ |①-②-|
⑨⑨⑧口 |③-④-|
①②⑤口 |⑤-⑥⑦|
①②④③ |-⑧⑨-|
50
口口口口 |①-②-|
口口口口 |③-④-|
①②口④
①②口③

口口⑦⑤
⑥口⑤⑦
口口⑨口 |⑤-⑥⑦|
⑧口⑨口 |-⑧⑨-|
51
①②④③ |①-②-|
⑥⑤⑤⑥ |③-④-|
⑥口口⑥ |⑤---|
口口口口 |⑥---|
52
⑦⑦口⑥ |①-②-|
⑨⑨⑧⑤ |③-④-|
口②④口 |⑤-⑥⑦|
①②口③ |-⑧⑨-|
53
⑥口⑦⑦ |①-②-|
口⑧⑨⑨ |③-④-|
口⑤②① |⑤-⑥⑦|
③④②① |-⑧⑨-|
54
⑤⑥口口 |①-②-|
⑥⑤口口 |③-④-|
④⑦②① |⑤--⑥|
③⑦②① |--⑦-|
55
口口①口 |①-②③|
口③②① |-④⑤-|
⑤口口④
口口口口

⑦⑦⑦⑦
口口口口
口口口口 |⑥---|
口口⑥⑥ |⑦---|
56
口口口口 |①-②-|
口口②① |③-④-|
④④②①
③③口口

⑥⑤⑦⑦
⑧⑤⑨⑨
口口口口 |⑤-⑥⑦|
口口口口 |-⑧⑨-|
57
⑦⑦口⑥ |①-②-|
⑨⑨口⑧ |③-④-|
⑤②④④ |⑤-⑥⑦|
①②③③ |-⑧⑨-|
58
口口④④ |①-②-|
口口③口 |③-④-|
口口口②
口口①口

⑤⑦口口
口口口口
⑦⑤⑥⑧ |⑤-⑥⑦|
口⑨口口 |-⑧⑨-|
59
⑥⑥⑥⑥ |①-②-|
③④②① |③-④-|
口⑤⑤口 |⑤---|
③口口① |⑥---|
60
⑥口⑦⑦ |①-②-|
⑤⑧⑨⑨ |③-④-|
④④③③ |⑤-⑥⑦|
②②①① |-⑧⑨-|
61
⑦⑦口⑥ |①-②-|
⑨⑨⑧口 |③-④-|
③③⑤口 |⑤-⑥⑦|
①①④② |-⑧⑨-|
62
口口⑧⑤ |①-②-|
⑨⑨⑤⑧ |③-④-|
④⑦口① |⑤⑥⑦⑧|
②⑥③① |--⑨-|
63
①①口口 |①-②③|
口口口口 |-④⑤-|
③⑤④②
口⑤口口

⑦口口口
口口口口
口口口口 |⑥---|
口口⑥⑥ |⑦---|
64
口口口口 |①---|
①口①① |----|
①口①① |----|
口口口口 |----|


不確定度: 0

最終更新:2013年06月30日 20:11