ふしぎなくすり
上野圭市 feat. SATOE

EXTREME

Level: 9
BPM: 162
Notes: 792

1
口口口口 |----|
口口口口 |----|
口口口口 |----|
口口口口 |----|
2
⑦⑤口④ |①②③④|
①③⑧口 |⑤⑥⑦⑧|
口口⑥口
口口②口

口口口口
⑬⑮口⑫
⑨⑪口口 |⑨⑩⑪⑫|
⑯口⑭⑩ |⑬⑭⑮⑯|
3
⑩④①⑦ |①②③④|
⑭⑭⑬⑭ |⑤⑥⑦⑧|
⑥⑧⑤③ |⑨⑩⑪⑫|
⑫②⑪⑨ |⑬-⑭-|
4
口①⑤口 |--①-|
④④口④ |②---|
②口②② |③---|
口口③③ |④-⑤-|
5
③③口③ |①-②-|
口口口口 |③---|
口口①①
口②口口

口口口口
⑤④④⑥
⑤⑦口⑥ |④-⑤-|
口口口口 |⑥-⑦-|
6
③口③③ |①-②-|
④口⑤⑤ |③---|
⑤口④④ |④---|
②⑥①① |⑤-⑥-|
7
口⑦②② |--①-|
③①⑥口 |②-③-|
⑧⑤⑧⑧ |④-⑤⑥|
④口④④ |⑦-⑧-|
8
口口口口 |--①-|
口①口口 |②---|
口口口口
②②口②

口口③③
③⑤口口
④口④④ |③---|
口口口口 |④-⑤-|
9
③③口③ |①-②-|
口口口口 |③---|
口口口口
②口①①

口口口口
⑥口口⑤
⑥④④⑤ |④-⑤-|
⑦口口口 |⑥-⑦-|
10
③口③③ |①-②-|
口②口口 |③---|
口口口口
口口①①

口口口口
④口④④
⑤口口⑤ |④---|
口⑥⑥口 |⑤-⑥-|
11
②口口② |--①-|
③③③③ |--②-|
④①①口 |③---|
口④④口 |--④-|
12
④③口⑥ |--①-|
②⑤②② |②-③-|
⑥⑥①⑦ |④-⑤-|
口口口口 |⑥-⑦-|
13
③③口口 |①-②-|
口口④口 |③-④-|
口口③口
口②①口

口口口口
⑦⑤口⑥
⑦口口⑥ |⑤-⑥-|
口口⑧⑧ |⑦-⑧-|
14
口②口口 |①-②-|
口口口口 |③-④-|
口①口口
③④口口

口口⑧⑧
⑦⑤⑧⑥
⑦⑧⑧⑥ |⑤-⑥-|
口口口口 |⑦-⑧-|
15
①①口口 |①-②-|
口④口口 |③-④-|
口口口口
③②③③

⑥⑥⑦⑦
⑦口口⑥
⑤口口⑤ |⑤---|
口口口口 |⑥-⑦-|
16
口口口口 |①---|
口口③口 |②-③-|
②②口②
口口①①

④④口⑤
⑦口口口
口口口口 |④-⑤-|
口⑥⑥口 |⑥-⑦-|
17
⑩口⑤⑨ |①②③④|
⑫⑧⑬③ |⑤⑥⑦⑧|
⑥④①⑪ |⑨⑩⑪⑫|
②⑭⑭⑦ |⑬-⑭-|
18
③①①③ |--①-|
口③③口 |②---|
④口口口 |③---|
②④④② |--④-|
19
④③口⑥ |--①-|
②⑤②② |②-③-|
⑥⑥①⑦ |④-⑤-|
口口口口 |⑥-⑦-|
20
③③口口 |①-②-|
口口④口 |③-④-|
口口③口
口②①口

口口口口
⑦⑤口⑥
⑦口口⑥ |⑤-⑥-|
口口⑧⑧ |⑦-⑧-|
21
口②口口 |①-②-|
口口口口 |③-④-|
口①口口
③④口口

⑥⑨⑨⑨
⑦⑤⑨口
⑧口⑨口 |⑤-⑥⑦|
口口口口 |⑧-⑨-|
22
口口口口 |--①-|
口②口① |②-③-|
口④口③ |④---|
口⑤口⑥ |⑤-⑥-|
23
①①口② |----|
①①③口 |①---|
①口口④ |②-③-|
口⑤⑤⑤ |④-⑤-|
24
②④④④ |--①-|
口⑤⑤⑤ |②---|
①③③③ |③---|
口口口口 |④-⑤-|
25
⑤⑤⑤⑤ |--①-|
④口④④ |②---|
③③②② |③-④-|
②①①① |--⑤-|
26
口口口口 |--①②|
④口口④ |③---|
⑥⑤⑤⑥ |④---|
①②③口 |⑤-⑥-|
27
②③④① |①-②③|
口⑦⑥⑤ |④-⑤⑥|
口⑧⑨口 |⑦-⑧-|
⑩⑧⑨⑩ |⑨-⑩-|
28
①口口口 |--①②|
②口口口 |③---|
③口口③
口口口口

⑥⑥④④
口口④④
口口④口 |④---|
⑤⑤口口 |⑤-⑥-|
29
口口口口 |①-②③|
③②口口 |④-⑤⑥|
①口⑥⑤
口口④口

⑪⑪口⑩
口⑫⑨⑫
口⑧口口 |⑦⑧⑨⑩|
口⑦口口 |⑪-⑫-|
30
④⑤④⑤ |①---|
⑥口口⑥ |②-③-|
②③②③ |--④-|
①口①口 |⑤-⑥-|
31
口口口口 |----|
口①①口 |--①-|
口口口口 |----|
口口口口 |----|
32
④④④④ |①---|
②②②② |②---|
③③③③ |③---|
①①①① |④---|
33
③口口③ |①---|
口①①口 |②---|
口口口口 |③---|
②④④② |④---|
34
③口口③ |①---|
①口口① |--②-|
口口口口 |③---|
②④④② |--④-|
35
③①①③ |--①-|
口③③口 |②---|
④口口口 |③---|
②④④② |--④-|
36
④③口⑥ |--①-|
②⑤②② |②-③-|
⑥⑥①⑦ |④-⑤-|
口口口口 |⑥-⑦-|
37
③③口口 |①-②-|
口口④口 |③-④-|
口口③口
口②①口

口口口口
⑦⑤口⑥
⑦口口⑥ |⑤-⑥-|
口口⑧⑧ |⑦-⑧-|
38
口②口口 |①-②-|
口口口口 |③-④-|
口①口口
③④口口

口口⑧⑧
⑦⑤⑧⑥
⑦⑧⑧⑥ |⑤-⑥-|
口口口口 |⑦-⑧-|
39
口口口口 |----|
口①口② |①---|
④④③③ |②---|
②②①① |③-④-|
40
口③①① |①---|
②④②② |②-③-|
⑥⑥⑤⑥ |④-⑤-|
口口口口 |--⑥-|
41
⑤③③⑤ |--①-|
②口口② |②---|
口口口口 |③---|
④①①④ |④-⑤-|
42
口③③口 |--①-|
②④④② |②---|
口⑤⑤口 |③---④-|
口①①口 |--⑤---|
43
口口口口 |①---|
口口口口 |②---|
口口口口
口①①②

口口口口
口口口口
③口口口 |③---|
口口④口 |④---|
44
口口口口 |①---|
口口口口 |②---|
口①②④ |③---|
口③口口 |④---|
45
口口口口 |①---|
③口口口 |②---|
口①①口 |③---|
口口④② |④---|
46
口口口口 |①---|
口①②④ |②---|
口口口口 |③---|
口③口口 |④---|
47
③口口口 |①---|
口①①口 |②---|
口口口口 |③---|
口口④② |④---|
48
口①②④ |①---|
口口口口 |②---|
口口口口 |③---|
口③口口 |④---|
49
口①①口 |①---|
口口口② |②---|
口口口口 |③---|
③口口④ |④---|
50
①③③口 |①---|
②④④② |②---|
口⑤⑤口 |③---④-|
口口口口 |--⑤---|
51
口口口口 |①---|
①口口① |②---|
口口口口
口①①②

口口口口
口口口口
③口口口 |③---|
口口④口 |④---|
52
口口口口 |①---|
口口口口 |②---|
口①②④ |③---|
口③口口 |④---|
53
③口口口 |①---|
①口口① |②---|
口①①口 |③---|
口口④② |④---|
54
口口口口 |①---|
口①②④ |②---|
口口口口 |③---|
口③口口 |④---|
55
③口口口 |①---|
口①①口 |②---|
①口口① |③---|
口口④② |④---|
56
口①②④ |①---|
口口口口 |②---|
口口口口 |③---|
口③口口 |④---|
57
口①①口 |①---|
口口口② |②---|
口①①口 |③---|
③口口④ |④---|
58
①口④口 |①---|
口口口口 |②---|
口口②口 |③---|
③口口口 |④---|
59
③口口⑥ |①②③④|
口口②口 |⑤⑥⑦⑧|
⑤①口④
口⑦口⑧

口⑨口口
⑬⑮口⑫
口口⑩⑯ |⑨⑩⑪⑫|
⑪口⑭口 |⑬⑭⑮⑯|
60
①口口④ |①②③④|
口口②⑧ |⑤⑥⑦⑧|
口⑤口口
⑦③口⑥

⑬⑨⑩口
口⑪口口
⑭口口⑫ |⑨⑩⑪⑫|
口⑭⑭口 |⑬-⑭-|
61
④③口⑥ |--①-|
②⑤②② |②-③-|
⑥⑥①⑦ |④-⑤-|
口口口口 |⑥-⑦-|
62
③③口口 |①-②-|
口口④口 |③-④-|
口口③口
口②①口

口口口口
⑦⑤口⑥
⑦口口⑥ |⑤-⑥-|
口口⑧⑧ |⑦-⑧-|
63
口②口口 |①-②-|
口口口口 |③-④-|
口①口口
③④口口

口口口口
⑦⑤口⑥
⑦⑧口⑥ |⑤-⑥-|
口口⑧⑧ |⑦-⑧-|
64
⑤①①⑤ |----|
口②②口 |①-②-|
③口口③ |③---|
口④④口 |④-⑤-|
65
口②②口 |----|
口③③口 |①---|
④①①④ |②-③-|
④口口④ |--④-|
66
口⑤⑥口 |--①-|
口③④口 |②---|
口②①口 |③-④-|
口口口口 |⑤-⑥-|
67
口④④口 |--①-|
口口口口 |②---|
口②①口 |③---|
口③③口 |--④-|
68
口口口口 |--①-|
②①①② |②---|
④⑥⑤③ |③-④-|
④⑥⑤③ |⑤-⑥-|
69
②口①① |----|
⑤⑤口⑤ |①---|
口④口口 |②-③-|
口口③口 |④-⑤-|
70
口①⑤口 |--①-|
④④口④ |②---|
②口②② |③---|
口口③③ |④-⑤-|
71
③③口③ |①-②-|
口口口口 |③---|
②口①①
口口口口

口口口口
口④④⑥
口⑦口⑥ |④-⑤-|
⑤⑤口口 |⑥-⑦-|
72
①①③③ |①-②-|
④③⑤⑤ |③---|
⑤口④④ |④---|
口⑥②口 |⑤-⑥-|
73
口⑦②② |--①-|
③①⑥口 |②-③-|
⑧⑤⑧⑧ |④-⑤⑥|
④口④④ |⑦-⑧-|
74
口口口口 |--①-|
口①口口 |②---|
口口口口
②②口②

口口③③
③⑤口口
④口④④ |③---|
口口口口 |④-⑤-|
75
③③口③ |①-②-|
口口口口 |③---|
口口口口
②口①①

口口口口
⑥口口⑤
⑥④④⑤ |④-⑤-|
⑦口口口 |⑥-⑦-|
76
③口③③ |①-②-|
口②口口 |③---|
口口口口
口口①①

口口口口
④口④④
⑤口口⑤ |④---|
口⑥⑥口 |⑤-⑥-|
77
②口口② |--①-|
③③③③ |--②-|
口①①口 |③---|
④④④④ |--④-|
78
口口口口 |----|
口口口口 |----|
口口口口 |----|
口口口口 |----|
79
口口口口 |----|
口口口口 |----|
口口口口 |----|
口口口口 |----|
80
口口口口 |----|
口①①口 |----|
口①①口 |----|
口口口口 |--①-|


不確定度: 0

最終更新:2013年06月30日 19:54