とってもとっても、ありがとう。
日向美ビタースイーツ♪

EXTREME

Level: 7
BPM: 92
Notes: 419

1
口口口口 |----|
口口口口 |----|
口口口口 |----|
口口口口 |----|
2
⑤⑥⑥⑤ |①--②|
④⑦⑦④ |③-④-|
⑧③②⑧ |⑤--⑥|
①口口① |⑦-⑧-|
3
⑥⑥⑤⑤ |①②-③|
⑦④口⑦ |-④-⑤|
口③口口 |⑥--⑦|
口②①口 |----|
4
⑤⑥⑥⑤ |①--②|
④⑦⑦④ |③-④-|
⑧③②⑧ |⑤--⑥|
①口口① |⑦-⑧-|
5
⑥⑥⑤⑤ |①②-③|
⑦④口⑦ |-④-⑤|
口③口口 |⑥--⑦|
口②①口 |----|
6
口口口口 |①-②-|
口③②口 |③-④⑤|
⑤⑤④④
口①①口

口⑧⑧⑦
口⑨⑥口
口口口口 |-⑥⑦-|
口口口口 |⑧--⑨|
7
⑦⑧⑧口 |①-②-|
口⑥①口 |③-④⑤|
④④⑤⑤ |-⑥⑦-|
口②③口 |⑧---|
8
口口口口 |①-②-|
口⑤④口 |③-④⑤|
③口口②
口①①口

口口口口
⑨口口⑧
口⑦⑦口 |--⑥-|
口⑥⑥口 |⑦-⑧⑨|
9
口②口口 |--①-|
口④①口 |②-③④|
口③②口
口口口口

口⑦⑦⑥
口口⑤口
口口口口 |-⑤⑥-|
口口口口 |⑦---|
10
口口口口 |①-②-|
口③②口 |③-④⑤|
⑤⑤④④
口①①口

口⑦⑦口
⑥⑧⑨⑥
口口口口 |--⑥-|
口口口口 |⑦-⑧⑨|
11
⑥⑦⑦口 |--①-|
口⑤口口 |②-③④|
③③④④ |-⑤⑥-|
口①②口 |⑦---|
12
口口口口 |①-②-|
口⑤④口 |③-④⑤|
③口口②
口①①口

口口口口
⑨口口⑧
口⑦⑦口 |--⑥-|
口⑥⑥口 |⑦-⑧⑨|
13
口②口口 |--①-|
口④①口 |②-③④|
口③②口
口口口口

口口口口
口口口口
⑦⑧⑧⑦ |-⑤⑥-|
口⑥⑤口 |⑦-⑧-|
14
口②②口 |①---|
①②②① |----|
口口口口 |②---|
口口口口 |----|
15
口口口口 |----|
口①①口 |--①-|
⑤②②⑤ |②-③-|
④③③④ |④-⑤-|
16
③②②③ |①---|
①口口① |②--③|
口口口口 |----|
口口口口 |----|
17
④口口④ |----|
③⑥口③ |--①-|
②口⑤② |②-③-|
①口口① |④-⑤⑥|
18
②⑦①② |①---|
口口⑥口 |--②-|
③⑤口③ |③---|
口口④口 |④⑤⑥⑦|
19
③口①③ |①---|
口口口口 |--②③|
②口口②
口口口口

口④④口
口⑤⑤口
口⑥⑥口 |--④-|
口口口口 |⑤-⑥-|
20
②④④② |①-②③|
⑤口口⑤ |-④-⑤|
口口口口
③①①③

口口⑨口
口⑧口口
口口⑦口 |----|
口⑥口口 |⑥⑦⑧⑨|
21
③①口③ |①---|
口口口口 |-②-③|
②口口②
口口口口

口④④口
口⑤⑤口
口⑥⑥口 |--④-|
口口口口 |⑤-⑥-|
22
②④④② |①-②③|
⑤口口⑤ |-④-⑤|
口口口口 |----|
③①①③ |----|
23
⑤口口⑤ |--①-|
⑥③④⑥ |②-③④|
⑦口②⑦ |--⑤-|
口①口口 |⑥-⑦-|
24
口⑤④口 |①-②-|
口口口口 |③-④⑤|
口③③口
①②②①

口口口口
⑥口口⑥
⑦⑨⑨⑦ |⑥-⑦-|
⑧口口⑧ |⑧-⑨-|
25
③口口③ |①---|
口①①口 |--②③|
②口口② |----|
④④口口 |--④-|
26
②②②② |①---|
口口口口 |----|
口口①① |②---|
④④③③ |③-④-|
27
③口口② |①-②③|
口口④④ |④---|
口①①口
口口口口

口口口口
口口⑦⑦
口口⑤⑤ |⑤---|
口口⑥⑥ |⑥-⑦-|
28
口口口口 |①---|
①①口口 |②---|
②②口口
口口口口

口④④口
口⑤⑤口
口口口口 |③---|
③③口口 |④-⑤-|
29
③口口③ |①-②③|
口口口口 |----|
口①①口
②口口②

口口口口
口④④口
口口⑦⑥ |④---|
口⑤⑤口 |⑤-⑥⑦|
30
⑤④④⑤ |①-②③|
②③口口 |-④-⑤|
口①口口
口口口口

口口口口
口⑥⑥口
口口口口 |----|
口口口口 |⑥---|
31
口口口口 |①-②-|
口⑤④口 |③-④⑤|
③口口③
②①①②

⑥口口⑥
⑦口口⑦
⑧口口⑧ |--⑥-|
口口口口 |⑦-⑧-|
32
口⑤④口 |①-②-|
口口口口 |③-④⑤|
口③③口
①②②①

口口口口
⑥口口⑥
⑦口口⑦ |--⑥-|
⑧口口⑧ |⑦-⑧-|
33
口口口口 |①---|
口④③口 |②-③④|
②口口② |----|
口①①口 |----|
34
④口口⑤ |----|
口口口③ |--①-|
②口口口 |②-③-|
口口口① |④-⑤-|
35
口③③口 |①---|
口①①口 |②-③-|
口①①口
口②②口

口口口口
口④④口
口⑤⑤口 |--④-|
口口口口 |--⑤-|
36
⑤口口④ |----|
③口口口 |--①-|
口口口② |②-③-|
①口口口 |④-⑤-|
37
口口③③ |①---|
口⑥口① |②-③-|
口口⑤口 |--④-|
口④②② |⑤-⑥-|
38
口④⑤口 |----|
口口③口 |--①-|
口②口口 |②-③-|
口口①口 |④-⑤-|
39
口口口口 |①-②-|
口⑦②口 |③-④-|
①③⑥① |--⑤-|
口⑤④口 |⑥-⑦-|
40
口⑤④口 |----|
口③口口 |--①-|
口口②口 |②-③-|
口①口口 |④-⑤-|
41
①③③① |①---|
口口口口 |②-③-|
口口口口
口②②口

口口口口
口④口口
口口⑤口 |--④-|
口⑥口口 |⑤-⑥-|
42
口口口口 |----|
②口口① |----|
④②①③ |①-②-|
口④③口 |③-④-|
43
口①口① |①---|
口①①① |----|
口口①口 |----|
口口口口 |----|


不確定度: 0

最終更新:2013年05月16日 13:52