イブの時代っ!
日向美ビタースイーツ♪

EXTREME

Level: 9
BPM: 210
Notes: 751

1
口口口口 |----|
口口口口 |----|
口口口口 |----|
口口口口 |----|
2
口口口口 |----|
口口口口 |----|
口口口口 |----|
口口口口 |----|
3
③口⑥⑧ |①-②-|
口④口口 |③-④-|
⑦口⑤口 |⑤-⑥-|
①口口② |⑦-⑧-|
4
③口⑥⑧ |①-②-|
口④口口 |③-④-|
⑦口⑤口 |⑤-⑥-|
①口口② |⑦-⑧-|
5
口③⑤口 |①-②-|
③⑥⑥⑤ |③---|
口①口口 |④-⑤-|
口④②口 |--⑥-|
6
口口口口 |--①-|
口口口口 |②-③-|
①②③④ |④-⑤-|
口⑦⑥⑤ |⑥-⑦-|
7
④③口⑤ |①-②-|
③口②② |--③-|
④口口⑤ |--④-|
①口口口 |--⑤-|
8
口口口口 |--①-|
口口②③ |--②-|
口口③口 |--③-|
①①②口 |----|
9
口口②② |①-②-|
④⑤⑤口 |--③-|
口①口③ |--④-|
④口口③ |--⑤-|
10
口⑤④口 |--①-|
口⑦口口 |②-③-|
口②⑥口 |④-⑤-|
口③①口 |⑥-⑦-|
11
②⑥口口 |①-②-|
②口⑤口 |--③-|
口⑦口④ |④-⑤-|
③口口① |⑥-⑦-|
12
④口口口 |①-②-|
④口口③ |③-④-|
②口口⑤ |--⑤-|
口口①⑤ |----|
13
口③②口 |①-②-|
口③②④ |--③-|
口⑥⑤口 |--④-|
①⑥口口 |⑤-⑥-|
14
口口②口 |--①-|
口口②口 |②---|
①口口口 |----|
口口口口 |----|
15
⑧②⑧② |①-②-|
口口⑤③ |③-④-|
口口⑥④ |⑤-⑥-|
①⑦①⑦ |⑦-⑧-|
16
口⑥口⑥ |①-②-|
①③口⑦ |③-④-|
②④口⑧ |⑤-⑥-|
⑤口⑤口 |⑦-⑧-|
17
①口③口 |①---|
口口④口 |--②-|
口⑤口口 |-③--④-|
口口口② |--⑤---|
18
口①④口 |-①----|
口口口口 |----|
③口②口 |②---③-|
口口口口 |--④---|
19
口口口口 |-①----|
口①口口 |----|
口口④② |②---③-|
③口口口 |--④---|
20
口口口口 |①---|
口②②口 |----|
口口口口 |②---|
口①口口 |----|
21
③口口口 |----|
口口口② |----|
口口口① |①--②|
口口口口 |-③--|
22
口口口口 |①---|
②口①口 |----|
口②口口 |②---|
口③③口 |③---|
23
口口口① |①---|
口口①② |----|
口口②口 |②---|
口口口口 |----|
24
口口口口 |①---|
口口口口 |----|
口口口① |②---|
②②①口 |----|
25
口口口口 |----|
②④③① |①-②-|
口⑤⑤口 |③-④-|
口口口口 |--⑤-|
26
口③③口 |--①-|
口口口口 |--②-|
①口口① |③---|
④②②④ |④---|
27
口口口口 |----|
②④③① |①-②-|
口⑤⑤口 |③-④-|
口口口口 |--⑤-|
28
口③③口 |--①-|
口口口口 |--②-|
①口口① |③---|
④②②④ |④---|
29
③口口① |①---|
④③①② |②---|
④口口② |③---|
口口口口 |④---|
30
口①①口 |①---|
口口口口 |----|
口口口口 |②---|
口②②口 |----|
31
①口口口 |①---|
①口口口 |----|
口口口② |②---|
口口口② |----|
32
口①①口 |①---|
口①口① |----|
①①口口 |----|
①①口口 |----|
33
口口①口 |----|
口①口口 |----|
口口口口 |①---|
口口口口 |----|
34
口口口口 |①---|
口口口① |----|
口①口② |②---|
②口口口 |----|
35
②口口口 |①---|
②口口口 |--②-|
口口口口 |----|
③③①① |③---|
36
口口口① |①---|
口口口① |----|
口口口口 |----|
口口口口 |----|
37
口口口口 |----|
口口口口 |----|
①口口口 |①---|
口①口口 |----|
38
口口②口 |①---|
口①口② |----|
口口①口 |②---|
口口口口 |----|
39
②①口⑤ |①---|
①⑤口口 |②-③-|
口口口④ |--④-|
③③④口 |--⑤-|
40
口①①口 |----|
②口口口 |--①-|
口口口③ |--②-|
口④口口 |③-④-|
41
⑥口口⑤ |①-②-|
⑧口⑦⑤ |③-④-|
②口①口 |⑤-⑥-|
④口③口 |⑦-⑧-|
42
⑥口口⑤ |①-②-|
⑧口⑦⑤ |③-④-|
②口口① |⑤-⑥-|
④口③① |⑦-⑧-|
43
口④③口 |①---|
口⑤⑤口 |②-③-|
口④③① |--④-|
口②口① |--⑤-|
44
④口口① |--①-|
②口口⑤ |②-③-|
⑥口口口 |④-⑤-|
⑥口口③ |⑥---|
45
口①①口 |①---|
④口③口 |②-③-|
口口⑤③ |--④-|
口②口⑤ |⑤---|
46
口①①口 |①---|
口④③口 |②-③-|
②口⑤③ |--④-|
口口口⑤ |⑤---|
47
②①①③ |①---|
⑥口口口 |--②-|
口口口口 |③-④-|
④口口⑤ |⑤-⑥-|
48
口口①口 |--①-|
口③口① |---②|
②口③口 |----|
口②口口 |③---|
49
①③③② |①--②|
口口口口 |--③-|
口口口口 |----|
②口口① |----|
50
①③③口 |①-②-|
①②②口 |--③-|
口②②① |----|
口③③① |----|
51
口③③① |①-②-|
口②②① |--③-|
①②②口 |----|
①③③口 |----|
52
①口⑤③ |①---|
①②⑤③ |②-③-|
④口⑤① |--④-|
④口⑤① |--⑤-|
53
口口口口 |----|
口口口口 |----|
口口口口 |----|
口口口口 |----|
54
①③③口 |①-②-|
①②②口 |--③-|
口②②① |----|
口③③① |----|
55
口③③① |①-②-|
口②②① |--③-|
①②②口 |----|
①③③口 |----|
56
①④口④ |①---|
①⑤②⑤ |②-③-|
③⑤⑤⑤ |--④-|
③口⑤口 |--⑤-|
57
口口口口 |----|
口口口口 |----|
口口口口 |----|
口口口口 |----|
58
①③③口 |①-②-|
①②②口 |--③-|
口②②① |----|
口③③① |----|
59
口③③① |①-②-|
口②②① |--③-|
①②②口 |----|
①③③口 |----|
60
口②②口 |①---|
口口口口 |----|
口口口口 |②---|
①口口① |----|
61
口④口口 |①---|
口③口口 |②---|
口②口口 |③---|
口①口口 |④---|
62
口口口口 |①---|
①口①口 |----|
口③③口 |----|
口②②口 |②-③-|
63
口①①口 |①---|
口口口口 |----|
②口口口 |----|
口②口口 |②---|
64
口④①口 |①---|
④②口① |②-③-|
口⑤⑤③ |--④-|
口口③口 |--⑤-|
65
①口口⑥ |--①-|
口⑤②口 |②-③-|
口口口口 |④-⑤-|
③⑦④口 |⑥-⑦-|
66
口④口口 |----|
①口③① |①---|
①②②① |②---|
口口口口 |③-④-|
67
口口口口 |----|
口②口② |----|
口口口口 |①---|
①口口① |②---|
68
③③口口 |①---|
口口口口 |②---|
④①②① |③---|
④口②口 |④---|
69
口口①① |①---|
口口口口 |----|
口口口② |②---|
口口口② |----|
70
口①①口 |①-②-|
⑤③③⑤ |--③-|
口②②口 |④---|
④⑥⑥④ |⑤-⑥-|
71
①口口① |--①-|
口口口口 |----|
①②②① |----|
口②②口 |--②-|
72
②口口口 |----|
口③口① |--①-|
口口④口 |--②-|
口口口① |③-④-|
73
口口⑦⑧ |①-②-|
口口口口 |③-④-|
⑤⑥口口 |⑤-⑥-|
①②③④ |⑦-⑧-|
74
①②口口 |①-②-|
口口③口 |③④⑤-|
⑦口④⑨ |⑥-⑦-|
⑥口⑤⑧ |⑧-⑨-|
75
口②②口 |①---|
口口口口 |②---|
口②②口 |----|
口①口口 |----|
76
⑦口口① |--①-|
⑧口②口 |②-③-|
口③口口 |④-⑤-|
④口⑥⑤ |⑥-⑦⑧|
77
口口⑤⑥ |①-②-|
口④⑥⑤ |③-④-|
①口③② |--⑤-|
口口口口 |--⑥-|
78
①口口口 |--①②|
②口口口 |③-④-|
③口口⑧ |⑤-⑥-|
⑦⑥⑤④ |⑦-⑧-|
79
②口口口 |①-②-|
③④口口 |③---|
口⑤①口 |④⑤⑥⑦|
口⑥⑦⑧ |⑧---|
80
口③③① |①--②|
口口口② |--③-|
②口口口 |----|
①口口口 |----|
81
①③③口 |①-②-|
①②②口 |--③-|
口②②① |----|
口③③① |----|
82
口③③① |①-②-|
口②②① |--③-|
①②②口 |----|
①③③口 |----|
83
①口⑤③ |①---|
①②⑤③ |②-③-|
④口⑤① |--④-|
④口⑤① |--⑤-|
84
口口口口 |----|
口口口口 |----|
口口口口 |----|
口口口口 |----|
85
①③③口 |①-②-|
①②②口 |--③-|
口②②① |----|
口③③① |----|
86
口③③① |①-②-|
口②②① |--③-|
①②②口 |----|
①③③口 |----|
87
①④口④ |①---|
①⑤②⑤ |②-③-|
③⑤⑤⑤ |--④-|
③口⑤口 |--⑤-|
88
口口口口 |----|
口口口口 |----|
口口口口 |----|
口口口口 |----|
89
①③③口 |①-②-|
①②②口 |--③-|
口②②① |----|
口③③① |----|
90
口③③① |①-②-|
口②②① |--③-|
①②②④ |----|
①③③④ |④---|
91
①口④口 |①-②-|
⑤口④口 |③---|
③⑦②⑥ |④-⑤-|
③口口口 |⑥-⑦-|
92
口口⑤① |①-②-|
⑥②⑤① |③-④-|
口⑧③口 |⑤-⑥-|
④口口⑦ |⑦-⑧-|
93
③口口① |①---|
口口口① |②-③-|
口口口② |----|
口④④口 |④---|
94
③①①口 |①---|
口口口口 |②-③-|
④口口② |----|
口④口口 |④---|
95
口④①口 |①---|
④②口① |②-③-|
口⑤⑤③ |--④-|
口口③口 |--⑤-|
96
①口口⑥ |--①-|
口⑤②口 |②-③-|
口口口口 |④-⑤-|
③⑦④口 |⑥-⑦-|
97
口④口口 |----|
①口③① |①---|
①②②① |②---|
口口口口 |③-④-|
98
口口①② |----|
口口②① |----|
口口口口 |①---|
口口口口 |②---|
99
③③口口 |①---|
口口口口 |②---|
④口②① |③---|
④口①② |④---|
100
口口①① |①---|
口口口口 |----|
口口口② |②---|
口口口② |----|
101
口②⑤⑤ |①-②-|
口②③③ |--③-|
④④①口 |④---|
⑥⑥①口 |⑤-⑥-|
102
①①口口 |--①-|
①②口② |----|
口②①② |----|
口口②① |--②-|
103
口⑤②口 |--①-|
③口⑥口 |②-③-|
①⑦④口 |④-⑤-|
口口口口 |⑥-⑦-|
104
③⑥⑤口 |①-②-|
④⑧⑦口 |③-④-|
口口口② |⑤-⑥-|
口口口① |⑦-⑧-|
105
口口口口 |①---|
口口口口 |----|
口口口口 |----|
口口①① |----|


不確定度: 0

最終更新:2013年05月16日 13:51