つぼみ
達見 恵 featured by 佐野宏晃

EXTREME

Level: 9
BPM: 184
Notes: 547

1
口口口口 |----|
口口口口 |----|
口口口口 |----|
口口口口 |----|
2
口⑤口口 |----|
口③④口 |--①-|
①口②口 |②-③-|
口口口口 |④-⑤-|
3
②口口① |①---|
口口口口 |②-③-|
口口口口 |----|
口口④③ |--④-|
4
④口④口 |①---|
口③口③ |②---|
②①②① |③---|
口口口口 |④---|
5
口口口③ |①---|
②口口③ |②-③-|
口口口① |----|
口口口① |----|
6
口口口口 |----|
口①口口 |----|
口口口口 |----|
口口口口 |--①-|
7
口口口口 |①---|
口口③口 |②-③-|
④口口口 |----|
口②①口 |--④-|
8
④④③③ |①---|
②口口① |②---|
口口口口 |③---|
口口口口 |④---|
9
⑧⑧⑧⑧ |①-②-|
⑥④③⑤ |③-④-|
⑥④③⑤ |⑤-⑥-|
②⑦⑦① |⑦-⑧-|
10
口口口口 |----|
口口口口 |----|
口口口口 |----|
口口口口 |----|
11
口口口口 |----|
④口口③ |----|
口②①口 |①-②-|
口口口口 |③-④-|
12
口④①① |①-②-|
口⑤②口 |③-④-|
口口口⑧ |⑤-⑥-|
⑦③⑥⑧ |⑦-⑧-|
13
④④⑤② |①-②-|
①口口⑦ |③---|
③③⑥口 |④-⑤-|
口口口口 |⑥-⑦-|
14
口口⑦⑦ |①-②-|
④①③口 |③-④-|
④⑥口口 |⑤-⑥-|
口②⑤口 |⑦---|
15
③④口口 |①-②-|
口口口② |③-④-|
口口①①
口口口口

口口口⑥
⑦口口口
口⑤口⑧ |⑤-⑥-|
口口口⑧ |⑦-⑧-|
16
⑧口②⑧ |①-②-|
口⑦⑤口 |③-④-|
①⑥④口 |⑤-⑥-|
③③口口 |⑦-⑧-|
17
口口口口 |----|
口口①口 |----|
口口口口 |----|
口口口口 |--①-|
18
⑤口口口 |①---|
⑤④口③ |②-③-|
口①②③ |----|
口口口口 |④-⑤-|
19
④口口口 |----|
④口口① |①---|
口口③① |②---|
②②口口 |③-④-|
20
口口口口 |----|
口口口口 |----|
口口口口 |----|
口口口口 |----|
21
③口②口 |----|
③口口① |①-②-|
口⑤口口 |③---|
④口口口 |④-⑤-|
22
口②口口 |①---|
口口③口 |②-③-|
口口③① |----|
口口④① |--④-|
23
口口口口 |①---|
①①口② |②---|
③口口② |③---|
③口④④ |④---|
24
口口口口 |①---|
口口口口 |----|
口①①口
口口口口

口②②口
口口口口
口③③口 |----|
口口口口 |②-③-|
25
口口口① |--①-|
②口口③ |②-③-|
口口口口 |④-⑤-|
④⑥⑥⑤ |--⑥-|
26
③⑤⑤③ |①---|
口①①口 |②-③-|
②④④② |----|
口口口口 |④-⑤-|
27
②④④① |----|
口②①口 |①---|
口口口口 |②---|
口③③口 |③-④-|
28
口口口口 |----|
口口口口 |----|
口①口口 |----|
口口口口 |--①-|
29
③口②② |①---|
③口口口 |②---|
口口口① |③---|
④④口① |④---|
30
口②②④ |①---|
口①①口 |②-③-|
③口口③ |----|
口口口口 |--④-|
31
④③口④ |①---|
③口②口 |②---|
口①口② |③---|
①口口口 |④---|
32
口口②④ |①---|
口口口口 |--②-|
口①①口 |③---|
口③口口 |--④-|
33
口口④口 |①-②-|
①口口④ |③-④-|
口③口口 |----|
口口②口 |----|
34
口③③口 |①---|
口②①口 |②---|
口②①口 |③---|
口④④口 |④---|
35
口④③口 |----|
②①①② |①---|
口口口口 |②---|
口口口口 |③-④-|
36
口口口口 |①---|
②口口② |--②-|
①口⑤① |③---|
③④口③ |④-⑤-|
37
口①口② |①-②-|
④⑧③口 |③-④-|
口⑤口⑥ |⑤-⑥-|
口口⑦口 |⑦-⑧-|
38
④口①① |①---|
④口口口 |②---|
口口口③ |③---|
②②口③ |④---|
39
口口①① |----|
口口口③ |①-②-|
④口口口 |----|
②②口口 |③-④-|
40
③口②口 |①---|
③①口口 |--②-|
口口①③ |----|
口②口③ |③---|
41
③口口口 |----|
②①口口 |----|
口口①② |--①-|
口口口③ |②-③-|
42
口口口① |①---|
⑤口②口 |②-③-|
口②口④ |--④-|
①③③口 |⑤---|
43
口②①口 |①-②-|
口③③口 |--③-|
口口口口 |----|
①口口② |----|
44
口③①口 |①---|
口口②① |②-③-|
①②口④ |----|
口①③口 |--④-|
45
口口口④ |①-②-|
⑤⑦②口 |③-④-|
③口⑥口 |⑤-⑥-|
口①口⑧ |⑦-⑧-|
46
①①③⑤ |①---|
④口②口 |②-③-|
口③口口 |----|
口②口口 |④-⑤-|
47
口①口口 |①-②-|
口②口口 |③-④-|
口⑤⑤③ |----|
④④口口 |⑤---|
48
①口口③ |①---|
②④②④ |②---|
①口口③ |③---|
口口口口 |④---|
49
口③口口 |①---|
③口口口 |②---|
口①①④ |③---|
②口④② |④---|
50
④口口口 |①---|
口①①② |②-③-|
③口口⑤ |----|
③口口⑤ |④-⑤-|
51
口口口口 |----|
⑥③④⑤ |①-②-|
口①②口 |③-④-|
口口口口 |⑤-⑥-|
52
口③口⑤ |①---|
口③口⑤ |②-③-|
口④口① |----|
口口②① |④-⑤-|
53
口①口口 |----|
①口口口 |①---|
②口口③ |②---|
口②③口 |③---|
54
⑤口①② |①---|
③口④① |--②-|
口④口③ |--③-|
②口口⑤ |④-⑤-|
55
口口③口 |----|
口②口口 |--①-|
口口口⑤ |②-③-|
④①口口 |④-⑤-|
56
①①口① |①---|
②口口口 |②-③-|
口④⑤口 |④-⑤-|
口⑥⑦③ |⑥-⑦-|
57
⑥口口⑦ |①-②-|
口②口③ |③-④-|
口⑤⑧口 |⑤-⑥-|
①口口④ |⑦-⑧-|
58
⑥口④口 |①---|
口①①③ |②-③-|
⑤口口③ |--④-|
口②口口 |⑤-⑥-|
59
口⑥⑥口 |①-②-|
口④口口 |③-④-|
口口⑤口 |--⑤-|
口③②① |⑥---|
60
①口口⑥ |①-②-|
①⑦口② |③-④-|
口⑤口口 |⑤-⑥-|
③口⑧④ |⑦-⑧-|
61
①口口口 |①-②-|
口⑥④口 |③-④-|
②口口③ |⑤-⑥-|
口⑤⑧⑦ |⑦-⑧-|
62
口①①口 |①---|
⑤口口③ |②-③-|
口⑦②口 |④-⑤-|
④口⑥口 |⑥-⑦-|
63
④⑦⑤② |①-②-|
口口口口 |③-④-|
③口口① |⑤-⑥-|
口⑧⑥口 |⑦-⑧-|
64
④⑥口③ |①---|
口①①口 |②-③-|
口口口口 |④-⑤-|
②口⑦⑤ |⑥-⑦-|
65
⑤口⑤⑥ |①-②-|
③口③④ |③-④-|
①口①② |⑤-⑥-|
口⑦⑦口 |⑦---|
66
②③口④ |①---|
口①口口 |--②-|
⑤口①口 |③-④-|
口口口⑥ |⑤-⑥-|
67
口口口口 |①-②-|
①②③口 |③-④-|
口⑥⑤④ |⑤-⑥-|
⑦口口⑧ |⑦-⑧-|
68
①口②② |①---|
①③⑥⑥ |②-③-|
⑤口④口 |④-⑤-|
⑦口④口 |⑥-⑦-|
69
③③口口 |①-②-|
口口口口 |③-④-|
口①④②
口①口口

口口⑦⑥
⑤口⑦口
⑤口口口 |⑤-⑥-|
口⑧口口 |⑦-⑧-|
70
⑥⑥⑥⑥ |①---|
口口口① |②-③-|
⑤②③⑤ |④---|
④口①④ |⑤-⑥-|
71
口口口口 |----|
口口口口 |----|
口口口口 |----|
口口口口 |----|
72
①④①① |①-②-|
口⑤②口 |③-④-|
口口口⑧ |⑤-⑥-|
⑦③⑥⑧ |⑦-⑧-|
73
④④⑤② |①-②-|
①口口⑦ |③---|
③③⑥口 |④-⑤-|
口口口口 |⑥-⑦-|
74
口口⑦⑦ |①-②-|
④①③口 |③-④-|
④⑥口口 |⑤-⑥-|
口②⑤口 |⑦---|
75
③④口口 |①-②-|
口口口② |③-④-|
口口①①
口口口口

口口口⑥
⑦口口口
口⑤口⑧ |⑤-⑥-|
口口口⑧ |⑦-⑧-|
76
⑧口②⑧ |①-②-|
口⑦⑤口 |③-④-|
①⑥④口 |⑤-⑥-|
③③口口 |⑦-⑧-|


不確定度: 0

最終更新:2013年06月30日 20:15