Flip Flap
kors k

EXTREME

Level: 9
BPM: 175
Notes: 683

1
口口口口 |------|
口口口口 |------|
口口口口 |------|
口口口口 |------|
2
口②②口 |①-----|
③口口④ |②-----|
口口口口 |③---④-|
口①①口 |------|
3
②口口② |①-----|
④口③口 |②---③-|
口④口③ |④-----|
①⑤⑤① |⑤-----|
4
②③④② |①-----|
口口口口 |②-----|
口口口口 |③---④-|
①口口① |------|
5
口⑦口口 |①---②-|
③④②⑤ |③---④-|
④③⑤② |⑤-----|
⑥①①⑥ |⑥---⑦-|
6
②口①② |①-----|
③口口④ |②-----|
口口口口 |③---④-|
口口口口 |------|
7
②口口② |①-----|
④口③口 |②---③-|
口④口③ |④-----|
①⑤⑤① |⑤-----|
8
②③④② |①-----|
口口口口 |②-----|
口口口口 |③---④-|
①口口① |------|
9
口口口口 |①---②-|
③④②口 |③---④-|
④③口②
口①①口

口口口口
口口口⑤
口口⑤口 |⑤-----|
⑥⑦口⑥ |⑥---⑦-|
10
②②②口 |①-----|
③口口④ |②-----|
⑤④口① |③---④-|
口口①口 |⑤-----|
11
②口②② |①-----|
④口③⑤ |②---③-|
⑥④①③ |④---⑤-|
①⑥⑥① |⑥-----|
12
⑤①③② |①-----|
口①口④ |②-----|
口口④② |③---④-|
②口口① |⑤-----|
13
口⑦口口 |①---②-|
③④②⑤ |③---④-|
④③⑤② |⑤-----|
⑥①①⑥ |⑥---⑦-|
14
口口①⑤ |①---②-|
③⑦口口 |③---④-|
口口⑥② |⑤---⑥-|
⑧④口口 |⑦---⑧-|
15
口③⑤口 |①---②-|
口⑦①口 |③---④-|
④口口⑥ |⑤---⑥-|
⑧口口② |⑦---⑧-|
16
③口口口 |①---②-|
⑦口①⑤ |③---④-|
口④口口 |⑤---⑥-|
口⑧⑥② |⑦---⑧-|
17
口口①① |①-----|
④口②④ |②-----|
口口③② |③-----|
⑤口③⑤ |④---⑤-|
18
①②②① |①-----|
口口口口 |②-----|
口口口口
口口口口

⑦口口⑦
⑥口④口
口⑤口③ |③-④-⑤-|
口口口口 |⑥---⑦-|
19
口口口口 |①-----|
口口口口 |②-----|
②口口口
①②口①

口④④口
口口口口
口口口③ |③-----|
⑤口③⑤ |④---⑤-|
20
①⑧⑧① |①-----|
②⑤②⑦ |②---③-|
④口⑥口 |④-⑤-⑥-|
口口③口 |⑦---⑧-|
21
口口口口 |----①-|
②口①口 |②---③-|
⑤③⑤④ |④-----|
③②④① |⑤-----|
22
①②②① |①-----|
口口口口 |②-----|
口口口口
口口口口

⑦口口⑦
⑥口④口
口⑤口③ |③-④-⑤-|
口口口口 |⑥---⑦-|
23
口口口口 |①-----|
口口口口 |②-----|
②口口口
①②口①

口④④口
口口口口
口口口③ |③-----|
⑤口③⑤ |④---⑤-|
24
①⑧⑧① |①-----|
②⑤②⑦ |②---③-|
④口⑥口 |④-⑤-⑥-|
口口③口 |⑦---⑧-|
25
④口口③ |①-----|
②口②口 |②---③-|
④口口③ |④-----|
⑤①⑤① |⑤-----|
26
口口⑥⑤ |①-----|
④⑥口口 |②-③-④-|
口①①③ |⑤-----|
⑥②口口 |⑥-----|
27
⑤⑥口口 |①-----|
口口⑥④ |②-③-④-|
③①①口 |⑤-----|
口口②⑥ |⑥-----|
28
口口⑥③ |①-----|
口⑤⑧⑦ |②---③-|
④①①口 |④-⑤-⑥-|
口②②口 |⑦---⑧-|
29
口⑥⑥口 |①---②-|
口口口口 |③---④-|
口①②口 |⑤-----|
⑤③口④ |⑥-----|
30
口口⑥⑤ |①-----|
④⑥口口 |②-③-④-|
口①①③ |⑤-----|
⑥②口口 |⑥-----|
31
⑤⑥口口 |①-----|
口口⑥④ |②-③-④-|
③①①口 |⑤-----|
口口②⑥ |⑥-----|
32
口口③口 |①-----|
口口口口 |②---③-|
口①口①
②口②口

口口口⑦
⑥口口口
口口⑤⑧ |④-⑤-⑥-|
口④口口 |⑦---⑧-|
33
口口口④ |①-----|
口②③④ |②-----|
①②③④ |③-----|
口口③④ |④-----|
34
②口口口 |①-----|
口口③口 |②-----|
口口口口 |----③-|
④①口口 |----④-|
35
口④③② |①-----|
口口口① |②-----|
口③④口 |③-----|
口口口口 |④-----|
36
口口口② |①-----|
口③口口 |②-----|
口口口口 |----③-|
口口①④ |----④-|
37
②④③口 |①-----|
①口口口 |②-----|
口③④口 |③-----|
口口口口 |④-----|
38
②口口口 |①-----|
口口③口 |②-----|
口口口口 |----③-|
④①口口 |----④-|
39
口④③② |①-----|
口口口① |②-----|
口③④口 |③-----|
口口口口 |④-----|
40
口口口② |①-----|
口③口口 |②-----|
口口口口 |----③-|
口口①④ |----④-|
41
②③口口 |①-----|
①⑤口④ |②-----|
③口口口 |③-----|
口口④口 |④---⑤-|
42
②口口② |①-----|
口口①口 |②-----|
③②②口 |----③-|
口口口④ |----④-|
43
②④③口 |①-----|
①口口口 |②-----|
口③④口 |③-----|
口口口口 |④-----|
44
口口口② |①-----|
口③口口 |②-----|
口口口口 |----③-|
口口①④ |----④-|
45
②④③口 |①-----|
①口口口 |②-----|
口③④口 |③-----|
口口口口 |④-----|
46
②口口口 |①-----|
口口③口 |②-----|
口口口口 |----③-|
④①口口 |----④-|
47
口④③② |①-----|
口口口① |②-----|
口③④口 |③-----|
口口口口 |④-----|
48
口⑨⑫⑧ |①-②-③-|
⑤①⑩④ |④-⑤-⑥-|
⑦⑪口⑥ |⑦-⑧-⑨-|
③口②口 |⑩-⑪-⑫-|
49
①口口⑧ |①-②-③-|
⑤①⑧④ |④-⑤-⑥-|
⑦口④⑥ |⑦-----|
⑦③口② |⑧-----|
50
口②②口 |①-----|
③口口④ |②-----|
口口口口 |③---④-|
口①①口 |------|
51
②口口② |①-----|
口口③口 |②---③-|
口④口口 |④-----|
①⑤⑤① |⑤-----|
52
②③④② |①-----|
口口口口 |②-----|
口口口口 |③---④-|
①口口① |------|
53
口⑦口口 |①---②-|
口④②口 |③---④-|
口③⑤口 |⑤-----|
⑥①①⑥ |⑥---⑦-|
54
②口①② |①-----|
③口口④ |②-----|
口口口口 |③---④-|
口口口口 |------|
55
②口口② |①-----|
口口③口 |②---③-|
口④口口 |④-----|
①⑤⑤① |⑤-----|
56
口⑦①⑤ |①---②-|
口③口口 |③---④-|
⑧口⑥口 |⑤---⑥-|
④口口② |⑦---⑧-|
57
⑦口口⑤ |①---②-|
口③①口 |③---④-|
口口⑥口 |⑤---⑥-|
④⑧口② |⑦---⑧-|
58
口口口口 |①-----|
①口口② |②-----|
口口口口
口口口口

口③口口
⑦口④口
口⑤口口 |③-④-⑤-|
口口⑥口 |⑥---⑦-|
59
口口④口 |①-----|
口②口口 |②-----|
口⑤口口 |③-----|
③口口① |④---⑤-|
60
⑧口⑦① |①-----|
②⑥口口 |②---③-|
口口⑤③ |④-⑤-⑥-|
口④口口 |⑦---⑧-|
61
口口口口 |----①-|
②口口① |②---③-|
口③口④ |④-----|
口⑤⑤口 |⑤-----|
62
①②②① |①-----|
口口③⑥ |②-----|
口口⑤④ |③-④-⑤-|
⑦口口口 |⑥---⑦-|
63
①口口① |①-----|
⑥③口口 |②-----|
④⑤口⑦ |③-④-⑤-|
口②②口 |⑥---⑦-|
64
⑩口③② |①-②-③-|
口口①④ |④---⑤-|
⑨⑥口口 |⑥-⑦-⑧-|
⑦⑧口⑤ |⑨---⑩-|
65
口口①① |①-----|
④口②④ |②-----|
口口③② |③-----|
⑤口③⑤ |④---⑤-|
66
①②②① |①-----|
口口口口 |②-----|
口口口口
口口口口

⑦口口⑦
⑥口④口
口⑤口③ |③-④-⑤-|
口口口口 |⑥---⑦-|
67
口口口口 |①-----|
口口口口 |②-----|
②口口口
①②口①

口④④口
口口口口
口口口③ |③-----|
⑤口③⑤ |④---⑤-|
68
①⑧⑧① |①-----|
②⑤②⑦ |②---③-|
④口⑥口 |④-⑤-⑥-|
口口③口 |⑦---⑧-|
69
口口口口 |----①-|
②口①口 |②---③-|
⑤③⑤④ |④-----|
③②④① |⑤-----|
70
①②②① |①-----|
口口口口 |②-----|
口口口口
口口口口

⑦口口⑦
⑥口④口
口⑤口③ |③-④-⑤-|
口口口口 |⑥---⑦-|
71
口口口口 |①-----|
口口口口 |②-----|
②口口口
①②口①

口④④口
口口口口
口口口③ |③-----|
⑤口③⑤ |④---⑤-|
72
①⑧⑧① |①-----|
②⑤②⑦ |②---③-|
④口⑥口 |④-⑤-⑥-|
口口③口 |⑦---⑧-|
73
④口口③ |①-----|
②口②口 |②---③-|
④口口③ |④-----|
⑤①⑤① |⑤-----|
74
口口⑥⑤ |①-----|
④⑥口口 |②-③-④-|
口①①③ |⑤-----|
⑥②口口 |⑥-----|
75
⑤⑥口口 |①-----|
口口⑥④ |②-③-④-|
③①①口 |⑤-----|
口口②⑥ |⑥-----|
76
口口⑥③ |①-----|
口⑤⑧⑦ |②---③-|
④①①口 |④-⑤-⑥-|
口②②口 |⑦---⑧-|
77
口⑥⑥口 |①---②-|
口口口口 |③---④-|
口①②口 |⑤-----|
⑤③口④ |⑥-----|
78
口口⑥⑤ |①-----|
④⑥口口 |②-③-④-|
口①①③ |⑤-----|
⑥②口口 |⑥-----|
79
⑤⑥口口 |①-----|
口口⑥④ |②-③-④-|
③①①口 |⑤-----|
口口②⑥ |⑥-----|
80
口口③⑦ |①-----|
⑥口口⑧ |②---③-|
口①⑤① |④-⑤-⑥-|
②④②口 |⑦---⑧-|
81
②②口口 |①---②-|
口口口口 |③---④-|
①①口④ |⑤-----|
⑤⑤口③ |------|
82
①口口① |①-----|
①口口① |------|
口①①口 |------|
口口口口 |------|


不確定度: 0

最終更新:2013年06月30日 20:13