FIGHTERS
三代目 J Soul Brothers

ADVANCED

Level: 7
BPM: 115
Notes: 605

1
口口口口 |----|
口口口口 |----|
口口口口 |----|
口口口口 |----|
2
口口口口 |----|
口口口口 |----|
口口口口 |----|
口口口口 |----|
3
①①口② |①②-③|
口口口③ |-④-⑤|
口口口④
口口口⑤

⑧⑨⑨口
口口⑥口
口口⑦口 |-⑥-⑦|
口口口口 |⑧-⑨-|
4
口口口口 |①---|
①口口① |--②-|
口②②口 |--③-|
口③③口 |----|
5
②口口② |----|
③口口③ |--①-|
口①①口 |②-③-|
口口口口 |----|
6
口口口口 |----|
口口口口 |①---|
口口口口
①口口①

口口口口
口③③口
口口口口 |----|
②口口② |②-③-|
7
口口①① |----|
②②口口 |--①-|
口③④⑤ |--②-|
口口口口 |③④⑤-|
8
②口口② |①---|
口口口口 |--②-|
口口口口
口①①口

口口口口
⑦③④口
口⑤口口 |③④⑤-|
口⑥⑥口 |⑥-⑦-|
9
④口口④ |①-②③|
口口口① |④---|
口②③口 |----|
口口口口 |----|
10
口口口口 |①②-③|
口①②口 |-④--|
口口③口
口口④口

⑤口口⑥
⑦⑨⑧口
口口口口 |⑤⑥⑦⑧|
口⑩口口 |⑨-⑩-|
11
口②③口 |①--②|
④口口④ |③-④-|
口口口口
口口①口

口口口口
口口口口
⑤⑧⑧⑤ |⑤-⑥-|
⑥⑦⑦⑥ |⑦-⑧-|
12
④②③④ |①--②|
口①①口 |③-④-|
口口口口
口口口口

口口口口
⑤⑦⑧⑤
⑥⑨⑩⑥ |⑤-⑥⑦|
口口口口 |⑧⑨⑩-|
13
口口口口 |①--②|
口②③口 |③④⑤-|
口④⑤口
①口口口

口⑧⑨口
⑩口口⑩
口口口口 |⑥-⑦⑧|
⑥口口⑦ |⑨-⑩-|
14
④口口④ |①--②|
口②③口 |③-④-|
①口口①
口口口口

口口⑧⑧
⑤口口⑤
⑥口口⑥ |⑤-⑥-|
⑦口口⑦ |⑦-⑧-|
15
口口口口 |①--②|
口口①① |③-④-|
④口口口
口②③口

⑧⑧口口
口口⑤⑤
口口⑥⑥ |⑤-⑥-|
口口⑦⑦ |⑦-⑧-|
16
口口口口 |①---|
①①口口 |②③④⑤|
口②③④
口⑤口口

口口⑨⑨
⑦⑦口口
⑧⑧口口 |⑥-⑦-|
口口口⑥ |⑧-⑨-|
17
口口口口 |①--②|
口口①① |③④⑤⑥|
口③②口
口⑤④⑥

⑩⑩口口
口口⑧⑧
⑦口⑨⑨ |⑦-⑧-|
口口口口 |⑨-⑩-|
18
⑩⑧⑧⑩ |①--②|
①①口口 |③④⑤⑥|
⑨⑥⑦⑨ |⑦-⑧-|
②④⑤③ |⑨-⑩-|
19
口口口口 |----|
口①①口 |①---|
口②②口 |②---|
口③③口 |③---|
20
口②③口 |①-②-|
口④④口 |③-④-|
口②③口
①口口①

口口口口
⑤口口⑥
⑦口口⑧ |⑤⑥⑦⑧|
⑨⑪⑫⑩ |⑨⑩⑪⑫|
21
⑦①②口 |①②③④|
⑥③④⑧ |⑤-⑥-|
⑤⑨⑩口 |⑦-⑧⑨|
口⑪⑪口 |⑩-⑪-|
22
①②②① |①---|
④口口③ |②---|
口⑥⑤口 |-③④⑤|
口⑦⑦口 |⑥-⑦-|
23
①②②① |①---|
口口口口 |②---|
口口口口 |----|
口口口口 |----|
24
口②③口 |①-②③|
④口口⑤ |④⑤⑥⑦|
⑥口口⑦
①口口①

口口口口
⑫⑧⑧口
口⑨⑩口 |⑧-⑨⑩|
口⑪口口 |⑪-⑫-|
25
口口口口 |①-②③|
口口口⑤ |④-⑤-|
①③口④
口口②口

口口口⑥
⑦口口口
口⑨⑧口 |⑥-⑦⑧|
口⑩⑩口 |⑨-⑩-|
26
①②②① |①---|
③口口④ |②---|
口⑤⑥口 |-③④⑤|
口⑦⑦口 |⑥-⑦-|
27
①②②① |①---|
口口口口 |②---|
口口口口
口口口口

口口口③
口口口口
口口口口 |----|
口口口口 |--③-|
28
①①口口 |①---|
①①②② |②---|
口口②②
口口口口

口③④口
口⑤⑥口
口口口口 |-③④⑤|
口⑧⑦口 |⑥-⑦⑧|
29
②口口③ |-①-②|
口④⑤口 |③④⑤⑥|
①⑥口①
口口口口

口口口⑪
口口口口
⑩口⑦⑩ |⑦⑧⑨-|
⑧⑩⑩⑨ |⑩-⑪-|
30
①①口口 |①---|
①①②② |②---|
口口②②
口口口口

口③④口
口口口口
口⑤⑥口 |--③④|
口口口口 |--⑤⑥|
31
⑦口⑧⑦ |①②③④|
⑤③④⑤ |⑤-⑥-|
⑥⑦⑦⑥ |⑦---|
①口口② |--⑧-|
32
①①口口 |①-②-|
①①②② |----|
口口②② |----|
口口口口 |----|
33
⑧口口② |①②-③|
①口⑥③ |-④-⑤|
口口⑦④ |-⑥-⑦|
口口口⑤ |⑧---|
34
口口口② |①②-③|
①口⑥③ |-④-⑤|
口口⑦④ |-⑥-⑦|
⑧口口⑤ |⑧---|
35
⑧口口② |①②-③|
①口⑥③ |-④-⑤|
口口⑦④ |-⑥-⑦|
口口口⑤ |⑧---|
36
⑤①①① |①---|
②②口口 |②---|
④④③口 |③---|
④④口口 |④-⑤-|
37
口①②口 |①②③④|
口③④口 |-⑤⑥-|
⑥口⑦⑤ |⑦-⑧⑨|
⑩⑧⑨⑪ |⑩⑪--|
38
④③①② |①②-③|
口口⑤⑥ |④-⑤⑥|
口口口口
口口口口

⑪口口⑫
口口口口
口⑦⑧口 |-⑦⑧⑨|
口⑨⑩口 |⑩-⑪⑫|
39
口口⑤口 |①②③④|
①⑥⑦② |-⑤⑥⑦|
③口口④
口口口口

口⑫⑬口
口口口口
口⑧⑨口 |⑧⑨⑩⑪|
口⑩⑪口 |--⑫⑬|
40
⑥口口口 |①②③④|
①⑤口② |⑤--⑥|
口③④口
口口口口

口口口⑦
⑧口口⑨
口⑩⑪口 |⑦⑧⑨⑩|
口口口口 |⑪---|
41
口⑥⑥口 |①②③④|
⑦⑤口⑧ |⑤-⑥-|
③⑨⑩④ |⑦⑧⑨⑩|
⑪①②⑫ |-⑪⑫-|
42
⑦⑥⑥口 |①②③④|
口⑤口口 |⑤-⑥⑦|
①口口②
口③④口

口口口口
口口口⑧
口⑨⑩口 |⑧⑨⑩⑪|
⑪口⑫⑬ |-⑫⑬-|
43
①⑮⑯② |①②③④|
③⑬⑭④ |⑤⑥⑦⑧|
⑤⑪⑫⑥ |⑨⑩⑪⑫|
⑦⑨⑩⑧ |⑬⑭⑮⑯|
44
①口口④ |①-②③|
口口口口 |--④-|
口口口口
口口②③

⑤⑤口口
⑤⑤⑥⑥
口口⑥⑥ |⑤--⑥|
口口口口 |----|
45
口①①口 |①---|
口②②口 |②---|
口③③口 |③---|
口④④口 |④---|
46
口②③口 |①-②-|
口④④口 |③-④-|
口②③口
①口口①

口口口口
⑤口口⑥
⑦口口⑧ |⑤⑥⑦⑧|
⑨⑪⑫⑩ |⑨⑩⑪⑫|
47
⑦①②口 |①②③④|
⑥③④⑧ |⑤-⑥-|
⑤⑨⑩口 |⑦-⑧⑨|
口⑪⑪口 |⑩-⑪-|
48
①②②① |①---|
④口口③ |②---|
口⑥⑤口 |-③④⑤|
口⑦⑦口 |⑥-⑦-|
49
①②②① |①---|
④口口④ |②---|
③口口③ |③---|
口口口口 |④---|
50
①⑦⑦① |①-②③|
⑤⑧⑧⑥ |④-⑤⑥|
②⑨⑨③ |⑦-⑧-|
⑩④口⑪ |⑨-⑩⑪|
51
口口口口 |①-②③|
口口口⑤ |④-⑤-|
③口口④
口①②口

口口口⑥
⑦口口口
口⑨⑧口 |⑥-⑦⑧|
口⑩⑩口 |⑨-⑩-|
52
①②②① |①---|
③口口④ |②---|
口⑤⑥口 |-③④⑤|
口⑦⑦口 |⑥-⑦-|
53
①②②① |①---|
口口口口 |②---|
口口口口
口口口口

口口口③
口口口口
口口口口 |----|
口口口口 |--③-|
54
①①口口 |①---|
①①②② |②---|
口口②②
口口口口

口③③口
④口口⑤
⑥口口⑦ |--③-|
口口口口 |④⑤⑥⑦|
55
口③④口 |①②--|
口口口口 |--③④|
口口口口
口①②口

口口口⑨
口⑤⑥口
⑧⑦口⑧ |⑤⑥⑦-|
口⑧⑧口 |⑧-⑨-|
56
①①口口 |①---|
①①②② |②---|
口口②②
口口口口

口③③口
口⑤⑥口
口④④口 |--③-|
口口口口 |④-⑤⑥|
57
①口⑦① |-①--|
口口口口 |-②③④|
④②③⑤ |⑤-⑥-|
口⑥口口 |--⑦-|
58
①①口口 |①-②-|
①①②② |----|
口口②② |----|
口口口口 |----|


不確定度: 0

タグ:

+ タグ編集
  • タグ:

このサイトはreCAPTCHAによって保護されており、Googleの プライバシーポリシー利用規約 が適用されます。

最終更新:2013年04月07日 23:06