めうめうぺったんたん!!
日向美ビタースイーツ♪

EXTREME

Level: 9
BPM: 185
Notes: 846

1
口口口口 |----|
口口口口 |----|
口口口口 |----|
①口口口 |--①-|
2
②口口③ |①-②-|
④口③① |----|
④口口⑤ |③-④-|
⑥口口⑤ |⑤-⑥-|
3
口口①③ |①-②-|
④口③口 |----|
④②口⑤ |③-④-|
⑥口口⑤ |⑤-⑥-|
4
②口口③ |①-②-|
④口③① |----|
④口口⑤ |③-④-|
口口口⑤ |⑤---|
5
⑨①⑤口 |①②③④|
口②⑥⑩ |⑤⑥⑦⑧|
⑪③⑦口 |⑨-⑩-|
口④⑧⑫ |⑪-⑫-|
6
③口口② |①-②-|
①③口④ |----|
⑤口口④ |③-④-|
⑤口口⑥ |⑤-⑥-|
7
③①口口 |①-②-|
口③口④ |----|
⑤口②④ |③-④-|
⑤口口⑥ |⑤-⑥-|
8
③口口② |①-②-|
①③口④ |----|
⑤口口④ |③-④-|
⑤口口口 |⑤---|
9
口⑤①⑨ |①②③④|
⑩⑥②口 |⑤⑥⑦⑧|
口⑦③⑪ |⑨-⑩-|
⑫⑧④口 |⑪-⑫-|
10
②口口③ |①-②-|
④口③① |----|
④口口⑤ |③-④-|
⑥口口⑤ |⑤-⑥-|
11
口口①③ |①-②-|
④②③口 |----|
④②口⑤ |③-④-|
⑥口口⑤ |⑤-⑥-|
12
②口口③ |①-②-|
④口③① |----|
④口口⑤ |③-④-|
⑥口口⑤ |⑤-⑥-|
13
⑨①⑤口 |①②③④|
口②⑥⑩ |⑤⑥⑦⑧|
⑪③⑦口 |⑨-⑩-|
口④⑧口 |⑪---|
14
口①口② |①-②-|
⑤口口⑥ |③-④-|
⑦口口⑧ |⑤-⑥-|
③口④口 |⑦-⑧-|
15
④口口③ |①---|
⑤②①⑤ |②---|
口①②口 |③-④-|
③口口④ |⑤---|
16
⑥③③⑥ |①-②-|
口口口口 |--③-|
①④⑤② |④-⑤-|
④①②⑤ |--⑥-|
17
口⑥⑥口 |①-②-|
④④③③ |③-④-|
②口口① |--⑤-|
⑤②①⑤ |⑥---|
18
①④口① |①---|
②口⑤③ |--②-|
④口口口 |③-④-|
口②③⑤ |--⑤-|
19
③口口② |①-②-|
口①口口 |--③-|
口口②口
①口口口

口口⑥口
⑤⑦口⑥
⑦⑤口④ |④-⑤-|
口口④口 |⑥-⑦-|
20
②①口① |①---|
口口口口 |--②-|
口口口口
口口口口

口⑥口口
④口口⑤
⑥口口⑤ |③-④-|
口④③③ |⑤-⑥-|
21
口口口口 |----|
口②①口 |①---|
口①②口 |②---|
①口口② |----|
22
①④口① |①---|
②口⑤③ |--②-|
④口口口 |③-④-|
口②③⑤ |--⑤-|
23
③⑦口② |①-②-|
⑤①口口 |--③-|
口口②口 |④-⑤-|
①口④⑥ |⑥-⑦-|
24
口口②① |①②③④|
口⑩④③ |⑤---|
⑨⑧口⑤ |⑥⑦⑧⑨|
⑦⑥口口 |⑩---|
25
⑤①②⑤ |①-②-|
①⑥⑥② |③-④-|
口口口口 |⑤---|
④④③③ |⑥---|
26
口⑤⑤口 |①-②-|
②口口① |③-④-|
⑥②①⑥ |⑤---|
④④③③ |⑥---|
27
②⑥⑥① |①-②-|
口②①口 |③-④-|
口⑤⑤口 |⑤---|
④④③③ |⑥---|
28
③口口① |①-②-|
④②②⑥ |③---|
③⑤⑤① |④-⑤-|
④口口⑥ |⑥---|
29
口⑤⑥① |①-②③|
⑪口②口 |④-⑤⑥|
③⑦⑧⑩ |⑦⑧⑨-|
⑨口④口 |⑩-⑪-|
30
⑪⑦⑥② |①-②③|
⑨①①⑧ |④-⑤-|
③口口⑩ |⑥⑦⑧⑨|
口⑤口④ |⑩-⑪-|
31
口⑨⑧口 |①②③④|
⑪①②口 |⑤⑥⑦-|
口③④⑩ |⑧-⑨-|
⑦⑤⑥口 |⑩-⑪-|
32
①⑤⑤① |①-②-|
⑦③③⑦ |③-④-|
⑥②②⑥ |⑤-⑥-|
④口口④ |⑦---|
33
②口⑦③ |①---|
⑥口口口 |②-③-|
口④口口 |④-⑤-|
口①①⑤ |⑥-⑦-|
34
口⑦口口 |--①-|
口①⑥口 |②-③-|
口⑤②口 |④-⑤-|
口③④口 |⑥-⑦-|
35
①口口口 |----|
口口④口 |①-②-|
口⑤口② |③---|
③口口口 |④-⑤-|
36
口口口口 |----|
口口口口 |----|
口口口口 |----|
口口口口 |----|
37
⑨⑦②⑧ |①-②③|
⑤③⑥口 |④-⑤-|
⑨口④⑧ |⑥-⑦-|
口①①口 |⑧-⑨-|
38
⑪⑦⑧⑫ |①-②③|
⑤口⑥② |④-⑤⑥|
口③口⑩ |⑦⑧⑨⑩|
⑨①①④ |⑪-⑫-|
39
口⑥⑦口 |①②③-|
⑩⑤⑤① |④-⑤-|
⑧②口⑨ |⑥⑦⑧⑨|
口④⑪③ |⑩-⑪-|
40
①⑤⑤① |①-②-|
⑦③③⑦ |③-④-|
⑥②②⑥ |⑤-⑥-|
④口口④ |⑦---|
41
①口口① |①---|
⑥③④口 |②-③-|
口⑦⑦口 |④-⑤-|
⑤②②⑤ |⑥-⑦-|
42
口口⑦① |--①-|
口④④口 |②-③-|
②口口⑤ |④-⑤-|
⑥口③⑥ |⑥-⑦-|
43
④⑥⑥③ |----|
④口口③ |①-②-|
口②①口 |③-④-|
⑤②①⑤ |⑤-⑥-|
44
口口口口 |----|
口口口口 |----|
口口口口 |----|
口口口口 |----|
45
口⑧④口 |①-②-|
⑦口口③ |③-④-|
口⑥②口 |⑤-⑥-|
⑤口口① |⑦-⑧-|
46
⑧口口④ |①-②-|
口⑦③口 |③-④-|
⑥口口② |⑤-⑥-|
口⑤①口 |⑦-⑧-|
47
口①①口 |①---|
②口口② |----|
口①①口 |②---|
②口口② |----|
48
口口③口 |①---|
④①①③ |②---|
④②②③ |③---|
口④口口 |④---|
49
⑧④口口 |①-②-|
口口③⑦ |③-④-|
⑥②口口 |⑤-⑥-|
口口①⑤ |⑦-⑧-|
50
⑦口口③ |①---|
口⑥②口 |②-③-|
⑤①①口 |④-⑤-|
口④口口 |⑥-⑦-|
51
口⑤①口 |①-②-|
⑥口口② |③-④-|
口⑦③口 |⑤-⑥-|
⑧口口④ |⑦-⑧-|
52
④⑤⑤③ |①-②-|
口④③口 |③-④-|
②口口① |⑤---|
口②①口 |----|
53
口④④口 |--①-|
②④④③ |②-③-|
口口口⑤ |④-⑤-|
⑥口①⑦ |⑥-⑦-|
54
口⑦口④ |①-②-|
③口⑥口 |③-④-|
口⑤②口 |⑤-⑥-|
口①口口 |⑦---|
55
①口①口 |①---|
口②口② |--②-|
口口口口 |----|
③口口③ |③---|
56
②⑤③口 |--①-|
⑤②口③ |②-③-|
⑦①④⑥ |④-⑤-|
⑦④①⑥ |⑥-⑦-|
57
口口③① |①-②-|
口口①③ |③-④-|
⑥②④⑦ |--⑤-|
口④②⑤ |⑥-⑦-|
58
①③口口 |①-②-|
③①口口 |③-④-|
口②④口 |----|
口④②⑤ |--⑤-|
59
⑦⑤③① |--①-|
口口口口 |②-③-|
口口口口 |④-⑤-|
⑥④②口 |⑥-⑦-|
60
口⑤口口 |①-②-|
①③②④ |③-④-|
③①④② |--⑤-|
⑦口口⑥ |⑥-⑦-|
61
口口③① |①-②-|
口口①③ |③-④-|
⑥②④⑦ |--⑤-|
口④②⑤ |⑥-⑦-|
62
①③口⑤ |①-②-|
③①口口 |③-④-|
口②④口 |----|
口④②口 |--⑤-|
63
⑦口口口 |①-②-|
口⑤口⑥ |③-④-|
③口口④ |⑤-⑥-|
①口口② |⑦---|
64
口口①① |①-②-|
②口②口 |③-④-|
⑤③③⑥ |--⑤-|
⑦④口④ |⑥-⑦-|
65
口口③① |①-②-|
口口①③ |③-④-|
⑥②④⑦ |--⑤-|
口④②⑤ |⑥-⑦-|
66
①③口口 |①-②-|
③①口口 |③-④-|
口②④口 |----|
口④②⑤ |--⑤-|
67
⑦⑤③① |--①-|
口口口口 |②-③-|
口口口口 |④-⑤-|
⑥④②口 |⑥-⑦-|
68
口口口口 |①-②-|
①③②④ |③-④-|
③①④② |----|
口口口口 |----|
69
①口①口 |----|
口②口② |①---|
③口③口 |②---|
口口口口 |③---|
70
④②④② |①---|
口④口口 |--②-|
④口④口 |③---|
③①③① |--④-|
71
⑤口⑤② |----|
③⑤口口 |①---|
⑤口⑤口 |②-③-|
口①口④ |④-⑤-|
72
口口口② |----|
③口口口 |①---|
口口口口 |②-③-|
口①口④ |④---|
73
②②④③ |①---|
口④③口 |②---|
口①④③ |③---|
①④①口 |④---|
74
②②④③ |①---|
口④③口 |②---|
口①④③ |③---|
①④①口 |④---|
75
②②⑤⑤ |①-②-|
④口口① |--③-|
口③⑥口 |④-⑤-|
①口口④ |--⑥-|
76
口⑥⑥口 |①-②-|
④④③③ |③-④-|
②口口① |--⑤-|
⑤②①⑤ |⑥---|
77
①④口① |①---|
②口⑤③ |--②-|
④口口口 |③-④-|
口②③⑤ |--⑤-|
78
③口口② |①-②-|
口①口口 |--③-|
口口②口
①口口口

口口⑥口
⑤⑦口⑥
⑦⑤口④ |④-⑤-|
口口④口 |⑥-⑦-|
79
②①口① |①---|
口口口口 |--②-|
口口口口
口口口口

口⑥口口
④口口⑤
⑥口口⑤ |③-④-|
口④③③ |⑤-⑥-|
80
口口口口 |----|
口②①口 |①---|
口①②口 |②---|
①口口② |----|
81
①④口① |①---|
②口口③ |--②-|
④口口⑤ |③-④-|
口②③口 |--⑤-|
82
口⑧口② |①-②-|
⑦口④口 |③-④-|
⑤③口口 |⑤-⑥-|
①口口⑥ |⑦-⑧-|
83
口口②① |①②③④|
口⑩④③ |⑤---|
⑨⑧口⑤ |⑥⑦⑧⑨|
⑦⑥口口 |⑩---|
84
⑤①②⑤ |①-②-|
①⑥⑥② |③-④-|
口口口口 |⑤---|
④④③③ |⑥---|
85
口⑤⑤口 |①-②-|
②口口① |③-④-|
⑥②①⑥ |⑤---|
④④③③ |⑥---|
86
②⑥⑥① |①-②-|
口②①口 |③-④-|
口⑤⑤口 |⑤---|
④④③③ |⑥---|
87
②口口① |①-②-|
⑥⑤⑤⑥ |③-④-|
②⑥⑥① |⑤---|
④④③③ |⑥---|
88
口口①口 |----|
④②口口 |--①-|
口口口口 |-②---③|
口口口③ |--④-|
89
口口③口 |-①--|
口口口口 |②---|
口口口① |③---|
②口口口 |----|
90
口口口口 |----|
口口口口 |----|
口口口口 |----|
口口口口 |----|
91
口口口口 |----|
口①①口 |----|
口①①口 |①---|
口口口口 |----|


不確定度: 0

最終更新:2013年05月16日 13:52