RED ZONE
Tatsh&NAOKI

EXTREME

Level: 10
BPM: 165
Notes: 871

1
口口口口 |----|
口口口口 |----|
口口口口 |----|
口口口口 |----|
2
口口口口 |----|
口口口口 |----|
口口口口 |----|
口口口口 |----|
3
口口口口 |----|
口口口口 |----|
口口口口 |----|
口口口口 |----|
4
口口口口 |----|
口口口口 |----|
口口口口 |----|
口口口口 |----|
5
口⑩⑪⑨ |①②③④|
⑧①②⑦ |⑤-⑥⑦|
⑥③④口 |-⑧⑨-|
⑫⑤口口 |⑩⑪⑫-|
6
口口口口 |①②③④|
口口⑧⑦ |⑤⑥⑦⑧|
口⑥⑤④
口③②①

⑭⑫⑪⑩
口⑨口口
口口口口 |⑨⑩⑪⑫|
口口口⑬ |⑬-⑭-|
7
⑬口⑩⑭ |①②③④|
⑨⑪⑥⑫ |⑤⑥⑦⑧|
⑦⑤⑧② |⑨⑩⑪⑫|
③①④⑮ |⑬⑭-⑮|
8
口口口口 |①②③④|
⑦⑧口口 |⑤⑥⑦⑧|
④⑤⑥口
①②③口

⑩⑪⑫⑭
口口⑨口
口口口口 |⑨⑩⑪⑫|
⑬口口口 |⑬-⑭-|
9
⑨⑪⑫⑩ |①②③④|
④⑧⑦① |⑤⑥⑦⑧|
⑬⑤②口 |⑨-⑩-|
口③⑥口 |⑪-⑫-⑬-|
10
口口口口 |①②③④|
口口⑧⑦ |⑤⑥⑦⑧|
口⑥⑤④
口③②①

⑭⑫⑪⑩
口⑨口口
口口口口 |⑨⑩⑪⑫|
口口口⑬ |⑬-⑭-|
11
⑬⑭⑮⑯ |①②③④|
⑪⑦⑥⑧ |⑤⑥⑦⑧|
⑤⑨②⑫ |⑨⑩⑪⑫|
③①④⑩ |⑬⑭⑮⑯|
12
口口口口 |①②③④|
⑦⑧口口 |⑤⑥⑦⑧|
④⑤⑥口
①②③口

⑩⑪⑫口
口口⑨口
口口口口 |⑨⑩⑪⑫|
⑬⑭⑮⑯ |⑬⑭⑮⑯|
13
口口④口 |-①--|
②③口① |②-③④|
①口口②
口口口口

⑪口口口
口口⑧口
⑨⑤⑥口 |-⑤⑥⑦|
⑦口⑩口 |⑧⑨⑩⑪|
14
口③④口 |①---|
②口⑦口 |②-③④|
口⑥口口 |----|
口口⑤① |⑤⑥⑦-|
15
⑦⑧口⑤ |--①②|
④①⑥口 |③-④⑤|
口口②口 |---⑥|
口③口口 |-⑦⑧-|
16
口口口口 |①②③④|
口口⑧⑦ |⑤⑥⑦⑧|
口⑥⑤④
口③②①

⑭⑫⑪⑩
口⑨口口
口口口口 |⑨⑩⑪⑫|
口口口⑬ |⑬-⑭-|
17
⑯⑭⑬⑮ |①②③④|
⑫⑧⑦⑪ |⑤⑥⑦⑧|
②⑥⑤① |⑨⑩⑪⑫|
⑩④③⑨ |⑬⑭⑮⑯|
18
⑦⑤⑥⑦ |--①②|
④口①④ |③---|
口②口口 |④-⑤⑥|
口口③口 |--⑦-|
19
口⑦⑥口 |①---|
⑥②③⑦ |②③④⑤|
口④⑤口 |--⑥-|
①口口① |⑦---|
20
口口口口 |①②③④|
⑦⑧口口 |⑤⑥⑦⑧|
④⑤⑥口
①②③口

⑩⑪⑫⑭
口口⑨口
口口口口 |⑨⑩⑪⑫|
⑬口口口 |⑬-⑭-|
21
口口口口 |①---|
口④⑤口 |----|
⑥②③⑦ |②③④⑤|
⑧①①⑨ |⑥⑦⑧⑨|
22
⑦①③⑦ |①-②-|
①⑧⑨③ |③-④-|
⑩⑤⑥口 |⑤⑥-⑦|
口④②口 |-⑧⑨⑩|
23
⑦③①⑦ |①-②-|
③⑨⑧① |③-④-|
口⑤⑥口 |⑤⑥-⑦|
口②④⑩ |-⑧⑨⑩|
24
⑦①③⑦ |①-②-|
①口口③ |③-④-|
口⑤⑥口 |⑤⑥-⑦|
⑧④②口 |--⑧-|
25
⑨①②口 |①②③④|
⑤⑩⑧⑥ |⑤-⑥-|
口⑦⑪⑬ |⑦⑧⑨-|
⑫③④口 |⑩⑪⑫⑬|
26
⑦①③⑦ |①-②-|
①⑧⑨③ |③-④-|
⑩⑤⑥口 |⑤⑥-⑦|
口④②口 |-⑧⑨⑩|
27
⑦③①⑦ |①-②-|
③⑨⑧① |③-④-|
口⑤⑥口 |⑤⑥-⑦|
口②④⑩ |-⑧⑨⑩|
28
⑦①③⑦ |①-②-|
①口口③ |③-④-|
口⑤⑥口 |⑤⑥-⑦|
⑧④②口 |--⑧-|
29
⑨①②口 |①②③④|
⑤⑩⑧⑥ |⑤-⑥-|
口⑦⑪⑬ |⑦⑧⑨-|
⑫③④口 |⑩⑪⑫⑬|
30
⑦口⑨口 |①-②-|
①口⑥③ |③-④⑤|
①口⑧口 |-⑥-⑦|
口④②⑤ |⑧-⑨-|
31
⑦②⑧⑧ |①-②-|
口⑤④⑥ |③④-⑤|
①口⑧⑧ |⑥-⑦⑧|
③口⑥④ |----|
32
口口⑨⑥ |①-②-|
口口③⑧ |③-④⑤|
⑦④⑤口 |-⑥-⑦|
①口口② |⑧-⑨-|
33
⑬⑫⑪⑩ |①②③④|
⑦⑧⑨口 |⑤⑥⑦⑧|
口⑥⑤④ |⑨⑩⑪⑫|
①②③⑭ |⑬⑭--|
34
⑦口⑨口 |①-②-|
口口⑥③ |③-④⑤|
口口⑧⑤ |-⑥-⑦|
①④②口 |⑧-⑨-|
35
口②口② |①②-③|
③③口口 |--④-|
口④口④
①口口口

⑤⑦口⑦
口口⑥⑤
⑤口⑥口 |-⑤--|
口口口口 |⑥--⑦|
36
③口①口 |--①-|
①口③⑤ |-②--|
④⑤口② |③--④|
口②④口 |--⑤-|
37
②④③① |--①-|
③⑤⑤④ |-②--|
④⑤⑤③ |③--④|
②③④① |--⑤-|
38
③口④② |①-②-|
③口口口 |③-④-|
口口口③
口口口①

口⑧口⑧
口⑦口⑥
⑥口⑦口 |⑤-⑥-|
口⑤⑤口 |⑦-⑧-|
39
②口口口 |①-②-|
④口②口 |③-④-|
口口口④
③口③①

口口⑥口
口⑥⑧口
⑦⑧⑤口 |⑤-⑥-|
口⑤口⑦ |⑦-⑧-|
40
⑦⑧⑥④ |①-②-|
口⑥⑧② |③-④-|
⑤口⑤③ |⑤-⑥-|
①③①⑦ |⑦-⑧-|
41
口口⑥④ |①-②-|
②⑦⑧② |③-④-|
⑥④⑤③ |⑤-⑥-|
③⑤①⑦ |⑦-⑧-|
42
①①④口 |①-②-|
口口口② |③-④-|
口口口③
③③①口

口⑧口⑧
⑥口⑥口
⑦⑤⑦口 |⑤-⑥-|
口口口⑤ |⑦-⑧-|
43
②口②⑧ |①-②-|
⑤⑥⑥④ |③-④-|
⑦④⑦① |⑤-⑥-|
③⑧③⑤ |⑦-⑧-|
44
⑤③②⑥ |①-②-|
口⑧⑧④ |③-④-|
⑥⑦⑤① |⑤-⑥-|
①口⑦③ |⑦-⑧-|
45
口口①口 |①②③④|
④口口⑤ |⑤⑥⑦⑧|
⑦口⑧口
②⑥口③

⑪口口⑨
口⑬⑭口
口⑩口⑫ |⑨⑩⑪⑫|
⑮口口⑯ |⑬⑭⑮⑯|
46
⑦①③⑦ |①-②-|
①⑧⑨③ |③-④-|
⑩⑤⑥口 |⑤⑥-⑦|
口④②口 |-⑧⑨⑩|
47
⑦③①⑦ |①-②-|
③⑨⑧① |③-④-|
口⑤⑥口 |⑤⑥-⑦|
口②④⑩ |-⑧⑨⑩|
48
⑦①③⑦ |①-②-|
①口口③ |③-④-|
口⑤⑥口 |⑤⑥-⑦|
⑧④②口 |--⑧-|
49
⑨①②口 |①②③④|
⑤⑩⑧⑥ |⑤-⑥-|
口⑦⑪⑬ |⑦⑧⑨-|
⑫③④口 |⑩⑪⑫⑬|
50
⑦①③⑦ |①-②-|
①⑧⑨③ |③-④-|
⑩⑤⑥口 |⑤⑥-⑦|
口④②口 |-⑧⑨⑩|
51
⑦③①⑦ |①-②-|
③⑨⑧① |③-④-|
口⑤⑥口 |⑤⑥-⑦|
口②④⑩ |-⑧⑨⑩|
52
⑦①③⑦ |①-②-|
①口口③ |③-④-|
口⑤⑥口 |⑤⑥-⑦|
⑧④②口 |--⑧-|
53
⑨①②口 |①②③④|
⑤⑩⑧⑥ |⑤-⑥-|
口⑦⑪⑬ |⑦⑧⑨-|
⑫③④口 |⑩⑪⑫⑬|
54
⑦口⑨口 |①-②-|
①口⑥③ |③-④⑤|
①口⑧口 |-⑥-⑦|
口④②⑤ |⑧-⑨-|
55
⑦②⑧⑧ |①-②-|
口⑤④⑥ |③④-⑤|
①口⑧⑧ |⑥-⑦⑧|
③口⑥④ |----|
56
口口⑨⑥ |①-②-|
口口③⑧ |③-④⑤|
⑦④⑤口 |-⑥-⑦|
①口口② |⑧-⑨-|
57
⑬⑫⑪⑩ |①②③④|
⑦⑧⑨口 |⑤⑥⑦⑧|
口⑥⑤④ |⑨⑩⑪⑫|
①②③⑭ |⑬⑭--|
58
⑦口⑨口 |①-②-|
口口⑥③ |③-④⑤|
口口⑧⑤ |-⑥-⑦|
①④②口 |⑧-⑨-|
59
口②口② |①②-③|
③③口口 |--④-|
口④口④
①口口口

⑤⑦口⑦
口口⑥⑤
⑤口⑥口 |-⑤--|
口口口口 |⑥--⑦|
60
③口①口 |--①-|
①口③⑤ |-②--|
④⑤口② |③--④|
口②④口 |--⑤-|
61
②④③① |--①-|
③⑤⑤④ |-②--|
④⑤⑤③ |③--④|
②③④① |--⑤-|
62
口口口口 |----|
口口口口 |----|
口口口口 |----|
口口口口 |----|
63
口口⑧口 |①②③④|
①⑤④口 |⑤⑥⑦⑧|
⑦口⑥口
口③口②

口⑨口⑯
⑬口口⑫
口⑮口⑭ |⑨⑩⑪⑫|
⑪口⑩口 |⑬⑭⑮⑯|
64
①⑨⑧⑯ |①②③④|
⑮⑦⑥⑭ |⑤⑥⑦⑧|
⑤⑬④⑫ |⑨⑩⑪⑫|
⑪③⑩② |⑬⑭⑮⑯|
65
①口口口 |①②③④|
口⑦④口 |-⑤⑥⑦|
③口⑥口
口⑤口②

口口⑬口
⑫口口⑩
口⑨口口 |-⑧⑨⑩|
口口⑧⑪ |-⑪⑫⑬|
66
⑥③口④ |①②③④|
口口②⑦ |-⑤⑥⑦|
①口口⑤
口口口口

口口⑮口
口口口口
⑭⑩⑪口 |⑧⑨⑩⑪|
⑫⑧⑨⑬ |⑫⑬⑭⑮|
67
⑤⑫⑪⑥ |①②③④|
①②③④ |⑤-⑥-|
⑩⑨⑧⑦ |⑦⑧⑨⑩|
口口口口 |⑪-⑫-|
68
⑤口口⑥ |①②③④|
⑭⑧⑫⑩ |⑤-⑥-|
⑦⑬⑨⑪ |⑦⑧⑨⑩|
①②③④ |⑪⑫⑬⑭|
69
⑤⑥⑦⑧ |①②③④|
⑬⑭⑮⑯ |⑤⑥⑦⑧|
⑫⑪⑩⑨ |⑨⑩⑪⑫|
④③②① |⑬⑭⑮⑯|
70
口⑥⑦口 |①②③④|
口口口口 |⑤⑥⑦⑧|
⑧口口⑤
④③②①

⑩口口⑨
口⑭⑬口
口⑫⑪口 |⑨⑩⑪⑫|
⑯口口⑮ |⑬⑭⑮⑯|
71
⑤⑥⑥④ |①--②|
③口口② |--③-|
②口口③ |--④-|
⑤①①④ |⑤-⑥-|
72
口口口口 |①--②|
③口口② |--③-|
②口口③
口①①口

⑤⑥口④
口口口口
口口口口 |--④-|
⑤口⑥④ |⑤-⑥-|
73
口口①口 |①---|
口①口① |----|
①口①口 |----|
口①口口 |----|


不確定度: 0

最終更新:2013年06月30日 20:07