Empathetic
Sota÷Des

EXTREME

Level: 10
BPM: 180
Notes: 746

1
口口口口 |----|
口口口口 |----|
口口口口 |----|
口口口口 |----|
2
②④④③ |①---|
②①①③ |--②-|
口②③口 |③---|
口口口口 |④---|
3
口⑤口⑦ |①---|
口口②⑦ |--②③|
口口⑦③ |④-⑤-|
①⑥④① |⑥-⑦-|
4
①④⑤口 |①---|
①⑥③口 |--②-|
口①⑦口 |③-④-|
②⑧口口 |⑤⑥⑦⑧|
5
口口⑤口 |①---|
②口口口 |--②③|
口③口口 |④-⑤-|
④口⑥① |⑥---|
6
②②口② |①---|
③①③口 |②---|
口口①口 |--③-|
口①口④ |④---|
7
③③②③ |①-②-|
口②口口 |③-④-|
④⑤⑤口 |⑤---|
①④①⑥ |⑥---|
8
③⑤③② |①---|
口①①口 |②-③-|
口口口口 |--④-|
④⑥④⑤ |⑤-⑥-|
9
⑬⑩⑮⑫ |①②③④|
⑤②⑦④ |⑤⑥⑦⑧|
①⑥③⑧ |⑨⑩⑪⑫|
⑨⑭⑪⑯ |⑬⑭⑮⑯|
10
④④口口 |①---|
②①②① |②-③-|
①②①② |--④-|
③口口⑤ |⑤---|
11
口口⑥③ |①-②-|
口①口口 |③-④-|
②口①④ |--⑤-|
⑤①口⑥ |⑥---|
12
⑬⑩⑮⑫ |①②③④|
⑤②⑦④ |⑤⑥⑦⑧|
①⑥③⑧ |⑨⑩⑪⑫|
⑨⑭⑪⑯ |⑬⑭⑮⑯|
13
⑥⑥口口 |①-②-|
③②③② |③-④-|
①④①④ |⑤-⑥-|
⑤⑦⑤⑦ |⑦---|
14
⑥⑥②③ |①-②-|
③①③② |③-④-|
①④⑦④ |⑤---|
⑤⑦⑤⑥ |⑥-⑦-|
15
口口①② |--①-|
②口③⑤ |②-③-|
④⑥口⑦ |④-⑤-|
口口口⑥ |⑥-⑦-|
16
口④⑨④ |①②③-|
⑤⑥⑦口 |④-⑤⑥|
⑧口⑩口 |⑦-⑧-|
①②③⑨ |⑨-⑩-|
17
①①口② |--①-|
⑥③口口 |②-③-|
⑥③口口 |--④-|
④④口⑤ |⑤-⑥-|
18
②⑥③③ |①-②-|
口⑤⑤口 |③-④-|
口④口口 |⑤---|
⑦口①⑥ |⑥-⑦-|
19
口口①② |--①-|
②口③⑤ |②-③-|
④⑥口⑦ |④-⑤-|
口口口⑥ |⑥-⑦-|
20
④④⑤③ |①-②-|
口②口口 |③-④-|
⑥口口口 |--⑤-|
①口⑦⑥ |⑥-⑦-|
21
口口口① |----|
口口口口 |①---|
口口口口 |----|
口口口② |②---|
22
③口③② |①---|
口口口口 |②-③-|
口④口口 |④---|
①口①⑤ |⑤---|
23
⑪⑨⑩口 |①②③④|
①⑤②⑥ |⑤⑥⑦⑧|
③⑦④⑧ |--⑨-|
⑬口⑫口 |⑩⑪⑫⑬|
24
口口口② |①---|
口口①口 |②---|
口口①口 |----|
口口口③ |③---|
25
①口①② |①---|
口④口口 |②-③-|
口④口口 |--④-|
③口③⑤ |⑤---|
26
口③④② |①---|
⑤口⑥口 |②---|
①口①口 |③-④-|
⑦①⑧口 |⑤⑥⑦⑧|
27
⑤口口② |--①-|
口①口口 |②-③-|
⑥口④口 |--④-|
口③口⑤ |⑤-⑥-|
28
口①⑧口 |①②③④|
②⑦⑥⑨ |⑤-⑥⑦|
⑭③⑩⑬ |⑧⑨⑩⑪|
④⑤⑫⑪ |⑫-⑬⑭|
29
①①⑥② |--①-|
②⑤口口 |②-③-|
口②④口 |--④-|
③③口⑤ |⑤-⑥-|
30
口③口② |①---|
口口口口 |②-③-|
①口口口 |④---|
④口口⑤ |⑤---|
31
①口①② |①---|
口口口口 |②---|
③口③口 |③---|
口口口④ |④---|
32
④②⑥② |--①-|
口口口口 |②-③-|
口⑦口口 |④-⑤-|
③①⑤⑥ |⑥-⑦-|
33
④⑤口③ |--①②|
①②⑪⑩ |③-④⑤|
⑦⑧口⑥ |⑥-⑦⑧|
口口口⑨ |⑨-⑩⑪|
34
③④口② |①---|
⑤⑤口口 |②---|
④③口⑤ |③--④|
①①口口 |--⑤-|
35
③④①口 |①--②|
⑤口②口 |--③-|
⑤③⑥⑥ |-④--|
②口④① |⑤-⑥-|
36
口口口① |----|
口口口口 |①---|
口口口口 |----|
口口口② |②---|
37
③④②口 |①-②-|
①⑤①⑤ |③-④-|
②④③口 |⑤--⑥|
⑥口⑥口 |----|
38
口口⑩口 |①②③④|
①⑨②⑧ |⑤---|
③⑦④⑥ |⑥⑦⑧⑨|
口⑤口口 |⑩---|
39
①②口口 |①②③④|
③口④⑩ |⑤---|
⑤⑨口⑧ |⑥⑦⑧⑨|
口口⑦⑥ |⑩---|
40
①⑦②⑥ |①②③④|
口⑤⑩口 |⑤---|
③⑨④⑧ |⑥⑦⑧⑨|
口口口口 |⑩---|
41
②⑤②⑤ |①---|
口口⑤① |②-③-|
③④③④ |--④-|
①③①口 |⑤---|
42
口口③口 |①---|
①①④口 |②-③-|
③口③④ |----|
口④①② |④---|
43
口①口④ |①---|
①③口① |②-③-|
③口③口 |----|
口口口② |④---|
44
①①口④ |①---|
③④③口 |②-③-|
口③④① |----|
④口口② |④---|
45
口①①④ |①---|
口④③口 |②-③-|
①③④口 |----|
口口③② |④---|
46
②口口③ |①---|
①②③① |----|
①④口① |--②-|
④口口口 |③-④-|
47
口②③口 |①---|
②口口③ |----|
④口①口 |--②-|
口④口① |③-④-|
48
口口口口 |①---|
口口口口 |--②-|
口口口①
②口①②

口③口④
③⑤④口
⑥口⑤⑥ |③-④-|
口口口口 |⑤-⑥-|
49
口④③口 |--①-|
口②②口 |----|
口口口口 |--②-|
③①①④ |③-④-|
50
①口口① |①---|
②口口口 |--②-|
口①①口 |----|
口口③口 |③---|
51
口①②口 |--①-|
口口口③ |----|
口口口口 |②---|
口口口口 |③---|
52
③口口口 |①---|
口口口口 |--②-|
口口②口 |----|
①口口口 |③---|
53
口口口口 |--①-|
口口口口 |----|
口③口口 |②---|
口口①② |③---|
54
口口①口 |①---|
②口口口 |--②-|
口口口③ |----|
口口口口 |③---|
55
口②口③ |--①-|
口口口口 |----|
口口口口 |②---|
①口口口 |③---|
56
口口口口 |①---|
口口口口 |--②-|
③①口口 |----|
口口②口 |③---|
57
口③①口 |①-②-|
③①③① |--③-|
口⑤⑤口 |④---|
②⑤⑤④ |⑤---|
58
①口④① |①---|
口口⑤口 |②---|
①口口① |----|
②口口③ |③-④⑤|
59
口口口口 |①---|
口口口口 |②---|
③口①口 |③---|
②③口④ |④---|
60
口口口口 |①---|
①口口口 |②---|
口①口口 |----|
②口口③ |③---|
61
口口①口 |①---|
③③口口 |②---|
口口①① |③---|
②③口④ |④---|
62
①口口口 |①---|
口口①口 |②---|
口①口口
②口口口

口口④口
口口⑤口
口口口口 |----|
口口口③ |③-④⑤|
63
口口口口 |①---|
口③口③ |②---|
口口①口 |③---|
②口口④ |④---|
64
①①口③ |①---|
口口③口 |②---|
口①口③ |③---|
②口口④ |④---|
65
口①口口 |①---|
口口④口 |②---|
③①①④ |----|
②③口③ |③-④-|
66
口①④口 |①---|
①口⑤口 |②---|
口口口口 |----|
②口口③ |③-④⑤|
67
口口口口 |①---|
口口④口 |②---|
③口①④ |----|
②③口③ |③-④-|
68
①口④口 |①---|
口①⑤口 |②---|
口口口口 |----|
②口口③ |③-④⑤|
69
口口口口 |①---|
口口④口 |②---|
③口①④ |----|
②③口③ |③-④-|
70
口①④口 |①---|
①口⑤口 |②---|
口口口口 |----|
②口口③ |③-④⑤|
71
③口口③ |①---|
口口口口 |②---|
口口①口 |③---|
②口口④ |④---|
72
口口口口 |①---|
①口口① |②---|
③口口③ |③---|
②口口④ |④---|
73
口①①口 |①---|
口口口口 |②---|
口③③口 |③---|
②口口④ |④---|
74
③①②④ |①---|
口①②口 |--②-|
①口口② |----|
③口口④ |③-④-|
75
口②口口 |--①-|
①口③① |--②-|
口⑥⑦口 |③-④-|
④口⑤口 |⑤-⑥⑦|
76
⑤②③④ |①---|
①②③① |②-③-|
②口口③ |----|
⑤口口④ |④-⑤-|
77
口①⑤口 |--①-|
②④口① |②-③-|
口③⑤③ |④-⑤-|
口②④口 |----|
78
口①口① |①---|
②口口③ |②-③-|
②口口③
口口口口

④口口⑤
口口口口
口口口口 |----|
④口口⑤ |④-⑤-|
79
口④①口 |--①-|
口②⑤口 |②-③-|
口⑥③口 |④-⑤-|
口口⑦口 |⑥-⑦-|
80
⑤口②④ |①---|
①②口① |②-③-|
口口③口 |----|
⑤③口④ |④-⑤-|
81
口④②口 |--①-|
①口口② |②-③-|
③①④⑤ |④-⑤-|
口③⑤口 |----|
82
⑥⑦⑧⑨ |①②③④|
⑤②①⑩ |⑤⑥⑦⑧|
④③⑫⑪ |⑨⑩⑪⑫|
⑬⑭⑮⑯ |⑬⑭⑮⑯|
83
②④④③ |①---|
②①①③ |--②-|
口②③口 |③---|
口口口口 |④---|
84
口⑤口⑦ |①---|
口口②⑦ |--②③|
口口⑦③ |④-⑤-|
①⑥④① |⑥-⑦-|
85
①④⑤口 |①---|
①⑥③口 |--②-|
口①⑦口 |③-④-|
②⑧口口 |⑤⑥⑦⑧|
86
⑥⑤⑤⑥ |①---|
②⑥⑥口 |--②③|
⑥③口⑥ |④-⑤-|
④口口① |⑥---|


不確定度: 0

最終更新:2013年10月01日 21:08