創世ノート
PON+wac

EXTREME

Level: 9
BPM: 200
Notes: 645

1
口口口口 |----|
口口口口 |----|
口口口口 |----|
口口口口 |----|
2
口口口口 |①---|
口口口口 |----|
口口口口 |----|
①①口口 |----|
3
口口①① |①---|
口口口口 |----|
口口口口 |----|
口口口口 |----|
4
①口口口 |①---|
①口口口 |----|
口口口② |②---|
口口口② |----|
5
口口①口 |①---|
口口①口 |----|
口②口口 |②---|
口②口口 |----|
6
口口口口 |①---|
口口①① |----|
口口口口 |----|
口口口口 |----|
7
口口口口 |①---|
口口口口 |----|
口口②② |②---|
①①口口 |----|
8
①①口口 |①---|
口口口口 |----|
口口口口 |----|
口口口口 |----|
9
口口口口 |①---|
口口口口 |----|
口口口口 |----|
口口①① |----|
10
口口口口 |----|
口口口口 |----|
口口口口 |----|
口口口口 |----|
11
①口口① |①---|
口①①口 |②---|
口③口② |③---|
口口④口 |④---|
12
口口①口 |①---|
口口口② |②---|
④⑤⑥⑦ |③---|
③口口口 |④⑤⑥⑦|
13
口口口口 |①---|
口③①口 |②-③-|
口口口⑤ |--④-|
④口②口 |--⑤-|
14
①①口口 |①---|
口口②② |----|
口口①口 |②---|
口②口口 |----|
15
口口①口 |①---|
口④口口 |②---|
①①③口 |③---|
口口口② |④---|
16
口口①口 |①---|
口口口② |②---|
口④口⑤ |③-④-|
口⑥口③ |⑤-⑥-|
17
口③口口 |①---|
①口②④ |②---|
口⑤口⑥ |③-④-|
口口口口 |⑤-⑥-|
18
口口口口 |①-②③|
①①口口 |④---|
口口口口
口④③②

口⑥⑤⑤
口⑧⑦口
口口口口 |⑤-⑥-|
口口口口 |⑦-⑧-|
19
⑤口口口 |①---|
口④口口 |②---|
③口①① |③---|
口②口口 |④-⑤-|
20
口①口② |①---|
口口③③ |②---|
口口口口 |③---|
口口④④ |④---|
21
口口②口 |①---|
口③④口 |②---|
①①⑥口 |③-④-|
口⑤口口 |⑤-⑥-|
22
①④口① |①---|
口口口口 |②---|
③口口③ |③---|
口口②口 |④---|
23
口③口② |①---|
①②口③ |--②-|
口③①② |----|
①口口口 |③---|
24
口口①口 |①---|
①②③口 |--②-|
③口①② |----|
口②③口 |③---|
25
①口口① |①---|
口口口口 |----|
口口口口 |----|
口口口口 |----|
26
⑤⑤⑤⑤ |①-②-|
④口口④ |--③-|
③①口③ |--④-|
口口②口 |--⑤-|
27
口口口口 |①-②-|
⑤⑥①口 |--③-|
口②口④ |④---|
口口③口 |⑤-⑥-|
28
③口②① |--①-|
口口口④ |②---|
③口口口 |③---|
口口口④ |④---|
29
口⑥⑤口 |①-②-|
②①口口 |--③-|
口④口③ |--④-|
口口口口 |⑤-⑥-|
30
⑥⑥⑥⑥ |①-②-|
⑤③口⑤ |③-④-|
④口②④ |--⑤-|
口①口口 |--⑥-|
31
口口口口 |①-②-|
⑤⑥①口 |--③-|
口②口④ |④---|
口口③口 |⑤-⑥-|
32
③口②① |--①-|
口口口④ |②---|
③口口口 |③---|
口口口④ |④---|
33
口①口口 |①-②-|
②口③口 |--③-|
口口口口
口口口口

口⑥⑤口
口口口口
口口口口 |--④-|
④口口口 |⑤-⑥-|
34
口口口口 |①-②-|
①②④③ |③-④-|
⑤⑥口口 |⑤-⑥-|
⑦⑧⑨⑩ |⑦⑧⑨⑩|
35
⑤②⑤口 |①-②-|
①口口④ |--③-|
口⑤③口 |--④-|
口口口口 |--⑤-|
36
口②口② |--①-|
口④④口 |--②-|
③口②① |--③-|
①③①③ |--④-|
37
①口③口 |----|
口②口口 |----|
口口口口 |--①-|
口口口口 |②-③-|
38
口④口口 |①-②-|
口④口③ |--③-|
口口②③ |--④-|
口①口口 |----|
39
口④口口 |①---|
口口口③ |--②-|
①②④口 |--③-|
②①口口 |--④-|
40
④口②④ |--①-|
③①①③ |--②-|
口②口口 |--③-|
口口口口 |--④-|
41
口口口口 |----|
口口口口 |----|
口口口口 |--①-|
口①③② |②-③-|
42
口口③口 |①-②-|
口口口口 |--③-|
①②③口
口口口口

⑥口口口
口④口⑤
⑥口口口 |--④-|
口④口⑤ |⑤-⑥-|
43
口④口⑦ |①-②-|
口⑧③口 |③-④-|
口②口⑤ |⑤-⑥-|
口⑥①口 |⑦-⑧-|
44
③④③口 |--①-|
口⑤⑥⑤ |②---|
口②口口 |③-④-|
口口①口 |⑤-⑥-|
45
口口口口 |①-②-|
口口口口 |③-④-|
①②①口
口③④③

⑤口口⑦
⑤口口⑦
⑧口口⑥ |⑤-⑥-|
口口口口 |⑦-⑧-|
46
口④口口 |①-②-|
口①①口 |③-④-|
口口③口
②口口口

口口口⑦
口⑧口口
口口口⑤ |⑤-⑥-|
口⑥口口 |⑦-⑧-|
47
③④③口 |--①-|
口⑤⑥⑤ |②---|
口②口口 |③-④-|
口口①口 |⑤-⑥-|
48
⑤口口⑦ |①-②-|
⑤口口⑦ |③-④-|
①②①⑥ |⑤-⑥-|
口③④③ |⑦---|
49
口口④口 |①---|
②③口口 |----|
口①①口 |--②-|
口口口口 |③-④-|
50
口口口口 |----|
口②①口 |----|
口口口口 |①---|
口②①口 |②---|
51
口口①口 |①---|
②③⑤口 |----|
口口①④ |②-③-|
口口口口 |④-⑤-|
52
口口①口 |----|
口②③口 |①---|
口口①口 |②---|
口②③口 |③---|
53
①①④口 |①---|
⑤口口口 |②-③-|
口⑤④② |--④-|
③③口② |⑤---|
54
②⑥口① |①-②-|
口④①口 |--③-|
②口⑤口 |④-⑤-|
口口③口 |⑥---|
55
⑦口①② |①-②-|
⑥⑤③④ |③-④-|
④③⑤⑥ |--⑤-|
②①口⑦ |⑥-⑦-|
56
口口①① |--①-|
口③③口 |②---|
口③③口 |--③-|
②②口口 |----|
57
口口口口 |①---|
①口口① |----|
口③口口 |----|
口口②口 |②-③-|
58
口口口① |----|
口口②口 |----|
口口口口 |①---|
口口口口 |②---|
59
口口③口 |①---|
口②口口 |----|
口①口口 |----|
口口口口 |②-③-|
60
口口口口 |----|
②口口口 |----|
口口口口 |①---|
①口口口 |②---|
61
口②口口 |①---|
口①④① |②---|
口②口口 |③---|
口③④③ |④---|
62
口④口② |①---|
口①口① |②---|
③④③② |③---|
口口口口 |④---|
63
口口口④ |①---|
①②①口 |②---|
③口③④ |③---|
口②口口 |④---|
64
③②口口 |①---|
①口①口 |②-③-|
③②口口 |--④-|
④④④④ |----|
65
口口口⑤ |①-②-|
口④⑥① |③-④-|
③⑦②口 |--⑤-|
口口口口 |⑥-⑦-|
66
①⑤口口 |--①-|
口②④口 |②---|
口口口③ |③-④-|
口口口口 |⑤---|
67
口⑦⑥口 |①--②|
①⑧口⑤ |③-④-|
①口④⑤ |⑤--⑥|
口②③口 |⑦-⑧-|
68
①口口④ |①--②|
口口口口 |--③-|
①②口④ |④---|
口口③口 |----|
69
①口①④ |①---|
口口口④ |②---|
②口口口 |③---|
②③口③ |④---|
70
④①⑤口 |①--②|
②口③⑥ |--③-|
⑥③口② |④--⑤|
口⑤①④ |--⑥-|
71
口口口口 |①---|
口①口口 |--②-|
口口①② |----|
②③③口 |③---|
72
①①①① |①-②-|
②②②② |--③-|
④④④④ |--④-|
③口口③ |----|
73
口①口口 |①-②-|
③口④① |③-④-|
口⑤⑦口 |--⑤-|
⑥②口⑤ |⑥-⑦-|
74
口口②口 |--①-|
口①口口 |②---|
口口口口 |----|
口口口口 |----|
75
①④②⑤ |①--②|
口③⑥口 |--③-|
口③⑥口 |④--⑤|
①④②⑤ |--⑥-|
76
口④②口 |①--②|
口③口① |--③-|
口③口① |④---|
口④②口 |----|
77
口口③口 |①---|
口②③口 |②---|
①②口④ |③---|
①口口④ |④---|
78
①口④口 |①--②|
②③⑤⑥ |--③-|
②③⑤⑥ |④--⑤|
①口④口 |--⑥-|
79
口①口② |①---|
口口口口 |--②-|
口③口口 |----|
口口口口 |③---|
80
③③⑤口 |①-②-|
④④口口 |③-④-|
口口②② |--⑤-|
口⑤①① |----|
81
口口口口 |①---|
口口口口 |----|
口①①口 |----|
①口口① |----|
82
口口口口 |①---|
①口口① |----|
口口口口 |----|
口口口口 |----|
83
口口⑦口 |①-②-|
①⑤③口 |③-④-|
口②⑥④ |⑤-⑥-|
口口口口 |--⑦-|
84
③口口口 |①-②-|
口④②口 |③---|
口①⑤口 |④---|
口口口口 |⑤---|
85
口口①① |①---|
②口口口 |----|
口③口口 |----|
口口口口 |②-③-|
86
口口口① |----|
口口②口 |----|
口口口口 |----|
口口口口 |①-②-|
87
口口口口 |----|
口口口口 |----|
①口口口 |----|
口②口口 |①-②-|
88
口口口① |----|
口口②口 |----|
口口口口 |----|
口口口口 |①-②-|
89
口①②口 |①-②-|
①口口② |③-④-|
口③④口 |--⑤-|
③⑤⑤④ |----|
90
①口③① |①-②-|
④口⑤③ |③-④-|
⑧②口⑦ |⑤-⑥-|
⑥口⑦口 |⑦-⑧-|
91
口②口口 |--①-|
②口③口 |②---|
口④①⑤ |③-④-|
口口⑤口 |⑤---|
92
口口②口 |①-②-|
口①④⑦ |③-④-|
③⑤口⑥ |--⑤-|
口③口口 |⑥-⑦-|
93
⑥口①⑥ |①-②-|
口②口口 |③-④-|
⑤口③⑤ |--⑤-|
口④④口 |--⑥-|
94
口口③口 |①-②-|
④口⑤③ |③-④-|
⑧②口⑦ |⑤-⑥-|
⑥口⑦① |⑦-⑧-|
95
口②口口 |--①-|
②口③口 |②---|
口④①⑤ |③-④-|
口口⑤口 |⑤---|
96
口口②口 |①-②-|
口①④⑦ |③-④-|
③⑤口⑥ |--⑤-|
口③口口 |⑥-⑦-|
97
口口①口 |①-②-|
口②口口 |③-④-|
口口③口
口④④口

⑥⑥⑥⑥
口口口口
⑤口口⑤ |--⑤-|
口口口口 |--⑥-|


不確定度: 0

最終更新:2013年10月01日 21:16