虹色の花
Akhuta y OJ

EXTREME

Level: 9
BPM: 170
Notes: 767

1
口口口口 |----|
口口口口 |----|
口口口口 |----|
口口口口 |----|
2
口口②口 |①---|
①③④⑤ |②---|
口④③口 |③-④-|
①②口⑤ |--⑤-|
3
口①口口 |--①-|
口③②口 |--②-|
口②③口 |③---|
④口①④ |④---|
4
①⑤②① |①---|
口⑤口口 |②-③-|
口③口口 |--④-|
口③④口 |⑤---|
5
②⑧口① |①-②③|
③⑧口口 |④-⑤-|
④口口⑦ |⑥-⑦-|
⑥口⑤口 |⑧---|
6
①口口① |①---|
③口口口 |②-③-|
③⑥口口 |--④-|
口④⑤② |⑤-⑥-|
7
口②口① |①②③④|
口④口③ |⑤-⑥-|
口口口⑤
⑥口口口

⑧⑫⑦口
⑩口⑨口
口口⑪口 |⑦⑧⑨⑩|
口口口口 |⑪-⑫-|
8
④口口② |①---|
口⑤⑤口 |②-③-|
口口口① |--④-|
③③口① |⑤---|
9
口④①⑤ |①-②-|
口口口⑥ |--③-|
②口③⑦ |④-⑤⑥|
②⑧口口 |⑦-⑧-|
10
口口③口 |①---|
口⑥③口 |②-③-|
口口⑤口 |--④-|
②④①① |⑤-⑥-|
11
口口③③ |①---|
口④口口 |②-③-|
口⑥口① |--④-|
②口⑤① |⑤-⑥-|
12
④②②③ |①---|
口口⑤口 |②---|
①⑤口① |--③-|
③口口④ |④-⑤-|
13
口口口口 |①---|
②①口② |--②-|
②口①② |----|
口口口口 |----|
14
口口口口 |①---|
口口口口 |②---|
口①①口
②口口②

口③口③
④口④口
口⑤口⑤ |--③-|
口口口口 |④-⑤-|
15
口③③② |①---|
口口口② |--②-|
口口口口 |----|
①口①口 |③---|
16
①⑩⑥② |①---|
①⑪⑦③ |--②③|
口口⑧④ |④⑤⑥⑦|
口口⑨⑤ |⑧⑨⑩⑪|
17
③口⑪⑦ |①②③④|
④口⑫⑧ |⑤⑥⑦⑧|
⑤①⑬⑨ |⑨⑩⑪⑫|
⑥②口⑩ |⑬---|
18
①①口口 |①---|
②②口口 |--②-|
口口③③ |----|
口口口口 |③---|
19
口口②口 |①---|
口口③口 |②-③-|
口②口口 |----|
口③①① |----|
20
②口口② |①---|
口口口口 |②---|
①⑤⑤① |--③-|
③④④③ |④-⑤-|
21
②口口② |①---|
口③③口 |②-③-|
①口口① |----|
口口口口 |----|
22
口口口② |①---|
口口口口 |②---|
口①①口
②口口口

口⑤口口
口口④③
口⑤口口 |--③-|
口口④③ |④-⑤-|
23
①口口口 |①---|
口口口口 |--②-|
①口口②
口口口②

口口口口
口口口口
③口口口 |----|
③口口口 |③---|
24
②口口口 |①---|
③口口口 |--②③|
口口口口
口①①口

口⑥⑩口
口⑦⑪口
④⑧口口 |④⑤⑥⑦|
⑤⑨口口 |⑧⑨⑩⑪|
25
⑦⑪口③ |①②③④|
⑧⑫口④ |⑤⑥⑦⑧|
⑨⑬①⑤ |⑨⑩⑪⑫|
⑩口②⑥ |⑬---|
26
③③①① |①---|
口口口口 |--②-|
②④②④ |----|
口口口口 |③-④-|
27
口口口口 |----|
①口口① |①-②-|
口口口口 |----|
口②②口 |----|
28
⑤口口口 |----|
口②③④ |①-②③|
口⑦口口 |④-⑤-|
口①①⑥ |⑥-⑦-|
29
口口口口 |①---|
口口口口 |②---|
①口②①
②口②口

口口③口
③③口口
口口口④ |③---|
口④口④ |④---|
30
③④②② |①---|
③口①③ |②---|
①②口口 |③---|
①口④④ |④---|
31
口口①① |①---|
②口②口 |②---|
②口口口
①①口口

口③口④
口④口口
口④口口 |③---|
口口③③ |④---|
32
②②口口 |①---|
口口①① |②---|
口口口口
①口②口

口口③④
⑤③口⑤
口④口口 |③-④-|
口口口口 |⑤---|
33
①①②口 |①---|
口口②口 |②---|
②口口口
口口①①

口口口③
口口口口
口④口④ |③---|
③③口④ |④---|
34
①①口口 |①---|
②口①口 |②---|
口口②口
口口②口

口口③口
口口④④
④口口口 |③---|
③③口口 |④---|
35
①①②② |①---|
③口口③ |--②-|
口②①口 |----|
③口口③ |③---|
36
口⑤⑥口 |①---|
口③④口 |--②-|
①②②① |③-④-|
口①①口 |⑤-⑥-|
37
②口口① |①---|
口口口① |②-③-|
①口②③
①口口口

口口口⑥
⑥口④⑥
口⑤口口 |④-⑤-|
口④口口 |⑥---|
38
口口①口 |①---|
口②口口 |②-③-|
①口口③
①口口②

⑤口口⑥
④口④⑥
口口口口 |④-⑤-|
⑥口口口 |⑥---|
39
口口①口 |①---|
口②口口 |②-③-|
①①③②
口口口口

⑤口口⑥
④口口⑥
⑥口口口 |④-⑤-|
口口口④ |⑥---|
40
口①②口 |①---|
⑤①②⑤ |②---|
④③③④ |③-④-|
口②①口 |⑤---|
41
口⑤⑦⑧ |①-②-|
⑦口⑤⑥ |③-④-|
口口③④ |⑤-⑥-|
①③①② |⑦-⑧-|
42
口口⑦⑧ |①-②-|
口①⑤⑥ |③-④-|
③口③④ |⑤-⑥-|
⑦⑤①② |⑦-⑧-|
43
②①③③ |①---|
②①口口 |--②-|
口口①② |----|
③③①② |③---|
44
②②口口 |①---|
②②①① |--②-|
①①②②
口口②②

口口③③
口口③③
③③口口 |----|
③③口口 |③---|
45
口口④⑥ |--①②|
口①④⑥ |③---|
⑤④②口 |④---|
口④口③ |⑤-⑥-|
46
①⑥口⑧ |①---|
⑥①口⑧ |②③④⑤|
⑦口口口 |⑥---|
⑤④③② |⑦-⑧-|
47
①⑥口⑧ |①---|
⑥①口⑧ |②③④⑤|
⑦口口口 |⑥---|
⑤④③② |⑦-⑧-|
48
①口口口 |①---|
口①口口 |②③④⑤|
口口口口
⑤④③②

⑧⑥口⑧
⑥⑧口⑧
⑦口口口 |⑥---|
口口口口 |⑦-⑧-|
49
口口③⑤ |--①-|
②口③⑤ |②---|
④③①口 |③---|
②③口① |④-⑤-|
50
⑥①口⑧ |①---|
①⑥口⑧ |②③④⑤|
⑦口口口 |⑥---|
⑤④③② |⑦-⑧-|
51
⑥①口⑧ |①---|
①⑥口⑧ |②③④⑤|
⑦口口口 |⑥---|
⑤④③② |⑦-⑧-|
52
口①口口 |①---|
①口口口 |②---|
口口②口
口口口②

③④口口
口③⑤口
口口口口 |③---|
口口口口 |④-⑤-|
53
⑤③口② |①---|
⑤③口② |②---|
②①③④ |③---|
②口③口 |④-⑤-|
54
⑧口⑥① |①---|
⑧口①⑥ |②③④⑤|
口口口⑦ |⑥---|
②③④⑤ |⑦-⑧-|
55
⑧口⑥① |①---|
⑧口①⑥ |②③④⑤|
口口口⑦ |⑥---|
②③④⑤ |⑦-⑧-|
56
口口口① |①---|
口口①口 |②③④⑤|
口口口口
②③④⑤

⑧口⑥⑧
⑧口⑧⑥
口口口⑦ |⑥---|
口口口口 |⑦-⑧-|
57
⑤③口口 |--①-|
⑤③口② |②---|
口①③④ |③---|
①口③② |④-⑤-|
58
⑧口①⑥ |①---|
⑧口⑥① |②③④⑤|
口口口⑦ |⑥---|
②③④⑤ |⑦-⑧-|
59
口口①口 |①---|
口口口① |②③④⑤|
口口口口
②③④⑤

口口口⑥
⑧口口⑧
口⑦口口 |⑥-⑦-|
口口口口 |--⑧-|
60
口口①① |----|
口②②口 |----|
口口②口 |①---|
①口口口 |--②-|
61
口口③口 |----|
②口口① |①---|
①①口口 |②---|
②③口口 |③---|
62
口口口口 |①-②-|
口①②③ |--③-|
口②①口
口口口③

口④口口
口口⑤口
口⑤口口 |--④-|
口口④口 |--⑤-|
63
②口④② |①---|
口①口⑤ |②-③-|
⑥口①口 |④-⑤-|
③⑥口口 |--⑥-|
64
①口口① |----|
①口口① |----|
口②②口 |①---|
②口口② |--②-|
65
口口口③ |----|
口②②口 |①---|
①口口① |②---|
口①①④ |③-④-|
66
⑤③①⑦ |①-②-|
口口口口 |③-④-|
口⑧口口 |⑤-⑥-|
⑥④②口 |⑦-⑧-|
67
②③⑤⑧ |①---|
④⑥⑨⑫ |②③④⑤|
⑦⑩⑬口 |⑥⑦⑧⑨|
⑪口口① |⑩⑪⑫⑬|
68
⑤口口⑥ |①②③④|
口口口口 |⑤-⑥-|
口口口②
口①③④

口口⑧口
⑨口口口
口⑦口⑩ |⑦-⑧-|
口口口口 |⑨-⑩-|
69
⑦⑤④⑥ |①---②-|
口③口口 |--③---|
口口②口 |④-⑤-|
口①口口 |⑥-⑦-|
70
口④③口 |①---|
⑤口口② |②③④⑤|
①口口①
口口口口

口口口口
口口口口
⑪⑧⑥⑩ |⑥⑦⑧⑨|
口⑨⑦口 |⑩-⑪-|
71
⑤②③④ |①-②③|
口口口口 |④-⑤-|
口口口口
口口口①

口⑬口口
口口⑩⑥
⑨⑦口⑫ |⑥⑦⑧⑨|
口⑪⑧口 |⑩⑪⑫⑬|
72
口⑮⑭③ |①②③④|
②④⑨⑦ |⑤⑥⑦⑧|
⑩⑥①⑬ |⑨⑩⑪⑫|
⑧⑫⑪⑤ |⑬-⑭⑮|
73
①口口② |①-②-|
口③④口 |③-④-|
⑤口口⑤ |⑤---|
口口口口 |----|
74
④③②① |①---②-|
④口口① |--③---|
口②③口 |④---|
①②③④ |----|
75
口③⑤口 |①-②-|
④③口① |③---|
②口③口 |④---|
④⑤③口 |⑤---|
76
口口口口 |①-②-|
口①②③ |--③-|
口②①口
口口口③

口④口口
口口⑤口
口⑤口口 |--④-|
口口④口 |--⑤-|
77
②口口② |①---|
口①口口 |②---|
②口①② |----|
口口口口 |----|


不確定度: 0

最終更新:2013年10月01日 21:06