GAIA
猫叉L.E.D.Master+

EXTREME

Level: 10
BPM: 180
Notes: 978

1
口口口口 |----|
口口口口 |----|
口口口口 |----|
口口口口 |----|
2
⑬⑫⑪⑩ |①②③④|
⑦⑧⑨口 |⑤⑥⑦⑧|
口④⑤⑥ |⑨⑩⑪⑫|
①②③口 |⑬---|
3
⑤口口口 |①---|
②口口① |②---|
⑤④③口 |③-④-|
②口口① |--⑤-|
4
口口口① |--①-|
口②③口 |--②-|
口④④① |③---|
口口口口 |④---|
5
②口口① |①---|
口口口口 |②---|
口口口口
②口口①

口口口⑤
口④③⑤
口口口⑤ |③-④-|
口口口⑤ |--⑤-|
6
①⑧③口 |--①-|
①⑦④口 |--②-|
①②⑤口 |③④⑤⑥--|
①口⑥口 |⑦-⑧-|
7
⑤口口口 |①---|
②口口① |②---|
⑤④③口 |③-④-|
②口口① |--⑤-|
8
口口口① |--①-|
口②③口 |--②-|
口④④① |③---|
口口口口 |④---|
9
②口口① |①---|
口口口口 |②---|
口口口口
②口口①

口口口⑤
口④③⑤
口口口⑤ |③-④-|
口口口⑤ |--⑤-|
10
①⑧⑦⑥ |--①-|
①⑤④口 |--②-|
①③②口 |③-④-|
①口口口 |⑤--⑥⑦⑧|
11
①口口口 |①---|
口口口② |②---|
口口口口
口口口②

⑥口口口
口口口口
⑥③④口 |③-④-|
口⑤口口 |⑤-⑥-|
12
口口口① |--①-|
口②③口 |--②-|
口④④① |③---|
口口口口 |④---|
13
①口口② |①---|
口口口口 |②---|
口口口口
①口口②

⑥口口口
⑥③④口
⑥⑤口口 |③-④-|
⑥口口口 |⑤-⑥-|
14
口⑤④① |--①-|
口⑥③① |--②-|
口⑦②① |③-④-|
口⑧口① |⑤⑥⑦⑧--|
15
⑥口口口 |①---|
①口口② |②---|
⑥④③口 |③-④-|
①口⑤② |⑤-⑥-|
16
口口口① |--①-|
口②③口 |--②-|
口④④① |③---|
口口口口 |④---|
17
①⑤⑥② |①---|
①③④② |②---|
①口口② |③-④-|
①口口② |⑤-⑥-|
18
口⑨⑨口 |①-②-|
③口口④ |③-④-|
⑤⑥⑦⑧ |⑤⑥⑦⑧--|
①口口② |⑨---|
19
①口口② |①-②-|
③④②口 |③-④-|
⑤口④⑥ |⑤-⑥-|
⑦口⑥⑧ |⑦-⑧-|
20
①口②口 |①-②-|
③⑥④② |③-④-|
⑤④⑥⑧ |⑤-⑥-|
⑦口⑧口 |⑦-⑧-|
21
①②④⑥ |①-②-|
③口⑧② |③-④-|
⑤④⑥口 |⑤-⑥-|
⑦口口⑧ |⑦-⑧-|
22
①⑥④口 |①-②-|
③②口② |③-④-|
⑤⑧⑥④ |⑤-⑥-|
⑦口口⑧ |⑦-⑧-|
23
①口③② |①---|
②②②⑤ |②-③-|
④口口③ |④-⑤-|
⑥⑦⑤⑦ |⑥-⑦-|
24
①②口④ |①-②-|
③⑥②⑧ |③-④-|
⑤口④⑥ |⑤-⑥-|
⑦口⑧口 |⑦-⑧-|
25
①②②口 |①-②-|
③口④口 |③-④-|
⑤⑥④口 |⑤-⑥-|
⑦⑥⑧⑧ |⑦-⑧-|
26
①⑦②② |①-②-|
③④④⑥ |③-④-|
⑤⑦口⑥ |⑤-⑥-|
口口口口 |⑦---|
27
⑧口口② |①-②-|
口⑫⑪⑥ |③④⑤⑥|
⑤⑩④口 |⑦-⑧-|
①③⑦⑨ |⑨⑩⑪⑫|
28
⑧口口② |①-②-|
口⑫⑪⑥ |③④⑤⑥|
⑤⑩④口 |⑦-⑧-|
①③⑦⑨ |⑨⑩⑪⑫|
29
⑧口口② |①-②-|
口⑫⑪⑥ |③④⑤⑥|
⑤⑩④口 |⑦-⑧-|
①③⑦⑨ |⑨⑩⑪⑫|
30
⑧口口② |①-②-|
口⑫⑪⑥ |③④⑤⑥|
⑤⑩④口 |⑦-⑧-|
①③⑦⑨ |⑨⑩⑪⑫|
31
⑧口口② |①-②-|
⑥⑪⑫口 |③④⑤⑥|
⑤⑩口④ |⑦-⑧-|
①③⑦⑨ |⑨⑩⑪⑫|
32
⑧口口② |①-②-|
⑥⑪⑫口 |③④⑤⑥|
⑤⑩口④ |⑦-⑧-|
①③⑦⑨ |⑨⑩⑪⑫|
33
⑧口口② |①-②-|
⑥⑪⑫口 |③④⑤⑥|
⑤⑩口④ |⑦-⑧-|
①③⑦⑨ |⑨⑩⑪⑫|
34
⑫⑪⑩② |①-②-|
⑥⑨口口 |③④⑤⑥|
⑤⑧⑦④ |-⑦⑧⑨|
①③口口 |-⑩⑪⑫|
35
⑫口口⑨ |①-②-|
⑧⑪⑩⑦ |③④⑤⑥|
⑥口口③ |⑦-⑧-|
②⑤④① |⑨⑩⑪⑫|
36
⑩⑧⑦⑨ |①-②-|
⑧口口⑦ |③④⑤⑥|
⑥⑩⑨③ |⑦-⑧-|
②⑤④① |⑨-⑩-|
37
⑩口口⑨ |①-②-|
⑧⑫⑪⑦ |③④⑤⑥|
④口口③ |⑦-⑧-|
②⑥⑤① |⑨⑩⑪⑫|
38
口⑤⑤口 |①-②-|
⑤口口⑤ |③-④-|
④⑥⑥③ |⑤---|
②⑥⑥① |⑥---|
39
⑫⑪⑩⑨ |①-②-|
⑧⑤④⑦ |③④⑤⑥|
⑥口口③ |⑦-⑧-|
②口口① |⑨⑩⑪⑫|
40
口口口口 |①-②-|
⑧⑤④⑦ |③④⑤⑥|
⑥⑩⑨③ |⑦-⑧-⑨-|
②口口① |⑩---|
41
⑫口口⑨ |①-②-|
⑧⑪⑩⑦ |③④⑤⑥|
⑥口口③ |⑦-⑧-|
②⑤④① |⑨⑩⑪⑫|
42
⑫⑪⑩⑨ |①-②-|
⑧口口⑦ |③④⑤⑥|
⑥⑤④③ |⑦-⑧-|
②口口① |⑨⑩⑪⑫|
43
⑯⑮⑭⑬ |①②③④|
⑫⑪⑩⑨ |⑤⑥⑦⑧|
⑧⑦⑥⑤ |⑨⑩⑪⑫|
④③②① |⑬⑭⑮⑯|
44
口口口口 |①②③④|
口口口⑧ |⑤⑥⑦⑧|
⑦⑥⑤④
口③②①

⑭⑬⑫⑪
口⑩⑨口
口口口口 |⑨⑩⑪⑫|
口口⑯⑮ |⑬⑭⑮⑯|
45
口口口口 |①②③④|
口⑧⑦⑥ |⑤⑥⑦⑧|
口⑤④③
②①口口

口⑫⑪⑩
⑨口口口
口口口口 |⑨⑩⑪⑫|
⑯⑮⑭⑬ |⑬⑭⑮⑯|
46
⑨⑩⑪⑫ |①②③④|
⑧⑦⑥⑤ |⑤⑥⑦⑧|
④③②① |⑨⑩⑪⑫|
⑬⑭⑮⑯ |⑬⑭⑮⑯|
47
⑧口口口 |①②③④|
⑤⑥⑦口 |⑤⑥⑦⑧|
①②③④
口口口口

口⑨⑩⑪
口口口口
⑮⑯口口 |⑨⑩⑪⑫|
⑫⑬⑭口 |⑬⑭⑮⑯|
48
⑥⑦⑧口 |①②③④|
③④⑤口 |⑤⑥⑦⑧|
口口①②
口口口口

口口口⑨
口口口口
⑭⑮⑯口 |⑨⑩⑪⑫|
⑩⑪⑫⑬ |⑬⑭⑮⑯|
49
⑤⑥⑦⑧ |①②③④|
②③④口 |⑤⑥⑦⑧|
口口口①
口口口口

口口口口
口口口口
⑬⑭⑮⑯ |⑨⑩⑪⑫|
⑨⑩⑪⑫ |⑬⑭⑮⑯|
50
⑤⑥⑦⑧ |①②③④|
①②③④ |⑤⑥⑦⑧|
⑯⑮⑭⑬ |⑨⑩⑪⑫|
⑨⑩⑪⑫ |⑬⑭⑮⑯|
51
②②②② |①---|
①①①① |--②-|
口口口口 |----|
口口口口 |----|
52
口口口口 |①---|
口口口① |--②-|
口口口口 |----|
②口口口 |----|
53
③③③③ |①---|
口口②口 |②-③-|
①①①① |----|
口口口口 |----|
54
口口口口 |①---|
②口口口 |--②-|
口口口口 |----|
口口③① |--③-|
55
③③③③ |①---|
口口②口 |②-③-|
①①①① |----|
口口口口 |----|
56
口口口口 |①---|
②口口① |--②-|
口口口口 |----|
①口口② |----|
57
③③③③ |①---|
口②②口 |②-③-|
①①①① |----|
口口口口 |----|
58
口口口口 |----|
⑧⑦⑥⑤ |----|
①②③④ |①②③④|
口口口口 |⑤⑥⑦⑧|
59
④③②① |①②③④|
⑯⑮⑭⑬ |⑤⑥⑦⑧|
⑫⑪⑩⑨ |⑨⑩⑪⑫|
⑧⑦⑥⑤ |⑬⑭⑮⑯|
60
④③②① |①②③④|
口口口口 |⑤⑥⑦⑧|
口口口⑧
口⑦⑥⑤

口口⑯⑮
口⑭⑬⑫
⑪⑩⑨口 |⑨⑩⑪⑫|
口口口口 |⑬⑭⑮⑯|
61
②①口口 |①②③④|
口口口口 |⑤⑥⑦⑧|
口口⑧⑦
⑥⑤④③

口⑯⑮⑭
⑬⑫⑪⑩
口⑨口口 |⑨⑩⑪⑫|
口口口口 |⑬⑭⑮⑯|
62
⑬⑭⑮⑯ |①②③④|
⑫⑪⑩⑨ |⑤⑥⑦⑧|
⑧⑦⑥⑤ |⑨⑩⑪⑫|
④③②① |⑬⑭⑮⑯|
63
⑬⑭⑮⑯ |①②③④|
⑨⑩⑪⑫ |⑤⑥⑦⑧|
⑤⑥⑦⑧ |⑨⑩⑪⑫|
①②③④ |⑬⑭⑮⑯|
64
口口口口 |①②③④|
⑧口口口 |⑤⑥⑦⑧|
④⑤⑥⑦
①②③口

⑪⑫⑬⑭
口⑨⑩口
口口口口 |⑨⑩⑪⑫|
⑮⑯口口 |⑬⑭⑮⑯|
65
口口口口 |①②③④|
⑥⑦⑧口 |⑤⑥⑦⑧|
③④⑤口
口口①②

⑩⑪⑫口
口口口⑨
口口口口 |⑨⑩⑪⑫|
⑬⑭⑮⑯ |⑬⑭⑮⑯|
66
⑫⑪⑩⑨ |①②③④|
⑤⑥⑦⑧ |⑤⑥⑦⑧|
①②③④ |⑨⑩⑪⑫|
⑯⑮⑭⑬ |⑬⑭⑮⑯|
67
口⑦④口 |①-②-|
口⑤③③ |③--④|
②口口① |--⑤-|
口口口⑥ |⑥⑦--|
68
口口⑦① |①--②|
⑥口口② |③-④-|
口口④⑧ |⑤⑥--|
①③⑤⑦ |⑦--⑧|
69
口②⑦口 |①---|
口②⑤③ |②--③|
口口口口 |④-⑤-|
①②④⑥ |⑥⑦--|
70
①⑧口口 |①--②|
②⑥口④ |③-④-|
口口口⑦ |⑤⑥--|
①③⑤⑦ |⑦--⑧|
71
口⑦②② |①---|
口③口⑤ |②--③|
口口口口 |④-⑤-|
①②④⑥ |⑥⑦--|
72
口口口口 |①--②|
②④①口 |③-④-|
口口口口
①③口口

口口口⑦
口口⑧⑥
口口口口 |⑤⑥--|
口口⑤⑦ |⑦-⑧-|
73
口②②口 |①②--|
口③口口 |③--④|
口④口口
①口口口

口口口口
口口口口
口口⑤口 |--⑤-|
⑥⑥口口 |-⑥--|
74
②②⑤⑤ |①--②|
①③④⑥ |--③-|
①③④⑥ |-④--|
口口口口 |⑤--⑥|
75
口④⑧口 |①-②-|
③③⑥口 |③--④|
②口口口 |⑤-⑥-|
①③⑤⑦ |⑦⑧--|
76
①⑧口⑥ |①--②|
②④口口 |③-④-|
口口口⑦ |⑤⑥--|
①③⑤⑦ |⑦-⑧-|
77
口⑧④口 |①-②-|
口⑥③② |③--④|
口口③口 |⑤-⑥-|
①③⑤⑦ |⑦⑧--|
78
口口口① |①--②|
④口⑦② |③-④-|
口⑥口⑧ |⑤⑥--|
①③⑤⑦ |⑦-⑧-|
79
口④⑥口 |①-②-|
③③⑧② |③--④|
口口口口 |⑤-⑥-|
①③⑤⑦ |⑦⑧--|
80
①口口② |①--②|
⑧口口④ |③-④-|
口口⑥⑦ |⑤⑥--|
①③⑤⑦ |⑦-⑧-|
81
⑨口④口 |①-②-|
⑨⑥③③ |③--④|
⑧②口口 |⑤-⑥-|
①③⑤⑦ |⑦⑧⑨-|
82
口⑥④② |①②-③|
⑫⑥④② |④-⑤⑥|
⑪⑤③① |⑦⑧⑨⑩|
⑦⑧⑨⑩ |⑪-⑫-|
83
①口口① |①---|
口②②口 |--②-|
口口口口 |----|
口口口口 |----|
84
口口口口 |----|
⑨⑩⑪⑫ |----|
⑧⑦⑥⑤ |①②③④⑤⑥|
①②③④ |⑦⑧⑨⑩⑪⑫|
85
①①①① |①---|
口口口口 |--②-|
口口口口 |----|
口②②口 |----|
86
①口口口 |----|
②口口⑧ |----|
③口口口 |①②③④⑤⑥|
④⑤⑥⑦ |⑦-⑧-|
87
②口①① |①---|
②②①口 |--②-|
②口①① |----|
口口口口 |----|
88
口口口口 |----|
口口口口 |----|
口口口口 |----|
口口口口 |----|
89
①②①② |①---|
口①②口 |--②-|
①②①② |----|
口①②口 |----|
90
①口②口 |①②③④|
口③口④ |⑤⑥⑦⑧|
⑤⑪⑥⑨ |⑨-⑩-⑪-|
⑫⑦⑩⑧ |⑫---|


不確定度: 0

最終更新:2013年10月01日 21:19