Synergy For Angels
TAG×U1-ASAMi

EXTREME

Level: 10
BPM: 160
Notes: 764

1
口口口口 |----|
口口口口 |----|
口口口口 |----|
口口口口 |----|
2
②①①⑤ |①--②|
口口口口 |--③-|
口口口口 |④--⑤|
口③⑥④ |--⑥-|
3
③口口④ |①--②|
口②口口 |--③-|
口口口⑤ |④--⑤|
①口⑥口 |--⑥-|
4
②口口⑤ |①--②|
口口口口 |--③-|
口口口口 |④--⑤|
①③⑥④ |--⑥-|
5
口口口口 |①--②|
口口③口 |--③-|
口②口口
①口口口

口口⑦⑪
⑩⑥口口
口口⑤⑨ |④⑤⑥⑦|
⑧④口口 |⑧⑨⑩⑪|
6
①①⑥⑤ |①--②|
口口③② |--③-|
④④⑥⑤ |④--⑤|
口口③② |--⑥-|
7
⑥口⑦⑤ |①--②|
④④③② |--③-|
⑥口⑤⑦ |④-⑤-|
①①③② |⑥-⑦-|
8
口口口④ |①---|
③口④② |----|
口③口口 |②--③|
①①口② |--④-|
9
口①①口 |①---|
口口口口 |----|
口口口口 |----|
口口口口 |----|
10
①①口② |①--②|
口口口② |--③-|
④⑤⑤口 |-④--|
④口③③ |⑤---|
11
口口口口 |①-②-|
①③⑤⑦ |③④--|
⑤⑧⑥① |⑤--⑥|
口②口④ |⑦-⑧-|
12
①③⑤⑦ |①②--|
口口口口 |③--④|
⑨口口② |⑤-⑥-|
③⑥④⑧ |⑦⑧-⑨|
13
口口口口 |①-②-|
①③⑤⑦ |③④--|
口④②⑤ |⑤--⑥|
⑥口⑧口 |⑦-⑧-|
14
①③⑤⑦ |①②--|
口口口口 |③--④|
②⑧③⑨ |⑤-⑥-|
口④口⑥ |⑦⑧-⑨|
15
口口口口 |①-②-|
①③⑤⑦ |③④--|
⑤⑧⑥口 |⑤--⑥|
②口④口 |⑦-⑧-|
16
①③⑤⑦ |①②--|
口口口口 |③--④|
⑥口⑧② |⑤-⑥-|
⑨③口④ |⑦⑧-⑨|
17
口口口口 |①-②-|
①③口口 |③④--|
口口口口
口④②口

口口口口
口口⑤⑦
口口口⑤ |⑤--⑥|
⑥口⑧口 |⑦-⑧-|
18
口口口② |①--②|
口口口口 |--③-|
③①①③
口口口②

④口口口
⑤⑥⑥口
口口⑤口 |-④--|
④口口口 |⑤-⑥-|
19
口口口② |①-②③|
口口口口 |④-⑤-|
③⑤口⑤
口①①④

⑥口⑦口
口⑨⑨⑨
口口⑨口 |⑥⑦⑧-|
⑧口⑨口 |⑨---|
20
②口口④ |①---|
①口口③ |②---|
①口口③ |③---|
口口口口 |④---|
21
③口①⑥ |①--②|
口②口口 |③-④-|
口口④口 |⑤---|
口⑤口⑥ |⑥---|
22
③口口口 |①--②|
口口②② |③-④-|
①④口口
①口④口

口口口⑦
口口口口
⑦口⑧口 |⑤-⑥-|
口⑤口⑥ |⑦-⑧-|
23
③口口⑦ |①-②-|
口①口② |③-④-|
⑧⑤口⑥ |⑤-⑥-|
③口口④ |⑦-⑧-|
24
②口口④ |①---|
③口口③ |②---|
口口口口 |③---|
口①①口 |④---|
25
③口①⑥ |①--②|
口②口口 |③-④-|
口口④口 |⑤---|
口⑤口⑥ |⑥---|
26
③口⑧⑦ |①--②|
④口口② |③-④-|
④①②⑥ |⑤--⑥|
①⑥⑤⑤ |⑦-⑧-|
27
⑬⑨⑫⑯ |①②③④|
⑤①④⑧ |⑤⑥⑦⑧|
⑪③②⑩ |⑨⑩⑪⑫|
⑦⑮⑭⑥ |⑬⑭⑮⑯|
28
口⑥口⑦ |①②-③|
①口③口 |-④⑤-|
⑧②④口 |-⑥-⑦|
口⑨口⑤ |-⑧⑨-|
29
口⑥①口 |①②-③|
⑦③口② |-④⑤-|
口口⑧④ |⑥⑦-⑧|
口口⑤⑨ |⑨---|
30
④口⑧③ |①②-③|
⑨⑤口口 |-④⑤-|
①口口⑥ |-⑥-⑦|
⑦②口口 |--⑧⑨|
31
⑨④口口 |①②-③|
口口⑤③ |-④⑤⑥|
⑧⑥①口 |⑦-⑧-|
口②口⑦ |⑨---|
32
口⑥⑨⑦ |①②-③|
口③口口 |--④⑤|
⑧口⑤① |⑥--⑦|
口④②口 |--⑧⑨|
33
⑤口口⑤ |-①-②|
口④④① |--③-|
口口口口 |④---|
③口口② |⑤---|
34
口①①口 |-①-②|
口口口口 |----|
口②②口
口口口口

口⑧口口
③口口⑤
口口口⑦ |③④-⑤|
⑥④口口 |-⑥⑦⑧|
35
口口①① |-①-②|
⑥口口⑥ |--③④|
②②③口 |-⑤-⑥|
口⑤⑤④ |----|
36
③⑥③⑥ |①--②|
⑤②②口 |③-④-|
口①口① |⑤---|
⑤④口④ |⑥---|
37
①③①③ |----|
口口口口 |①---|
③口口③ |②---|
②口口② |③---|
38
③⑥③⑥ |①--②|
④①①④ |③-④-|
口②②口 |⑤---|
口⑤⑤口 |⑥---|
39
①②①② |----|
口口口口 |①---|
口口口口 |----|
口口口口 |②---|
40
③⑥③⑥ |①--②|
⑤②②口 |③-④-|
口①口① |⑤---|
⑤④口④ |⑥---|
41
①③①③ |----|
口口口口 |①---|
③口口③ |②---|
②口口② |③---|
42
③⑤③⑤ |①--②|
④①①④ |③-④-|
口②②口 |----|
口口口口 |⑤---|
43
③口②口 |①②③④|
⑦口口⑧ |⑤⑥⑦⑧|
①口⑥口
口⑤④口

口口口⑯
口⑪⑫口
⑬⑮口⑩ |⑨⑩⑪⑫|
⑨口口⑭ |⑬⑭⑮⑯|
44
①②①口 |①-②-|
③④口⑤ |③-④-|
⑤⑥口⑦ |⑤-⑥-|
⑦⑧③口 |⑦-⑧-|
45
①②口口 |①-②-|
③④①⑤ |③-④-|
⑤⑥③⑦ |⑤-⑥-|
⑦⑧口口 |⑦-⑧-|
46
①②③③ |①-②-|
③④口口 |③-④-|
⑤⑥口口 |⑤-⑥-|
⑦⑧①① |⑦-⑧-|
47
①②口口 |①-②-|
③④口口 |③-④-|
⑤⑥口口 |⑤-⑥-|
⑦⑧口口 |⑦-⑧-|
48
①②①口 |①-②-|
③④⑤口 |③-④-|
⑤⑥⑦口 |⑤-⑥-|
⑦⑧③口 |⑦-⑧-|
49
①②口口 |①-②-|
③④⑤① |③-④-|
⑤⑥⑦③ |⑤-⑥-|
⑦⑧口口 |⑦-⑧-|
50
①②③③ |①-②-|
③④口口 |③-④-|
⑤⑥口口 |⑤-⑥-|
⑦⑧①① |⑦-⑧-|
51
①②口口 |①-②-|
③④口口 |③-④-|
⑤⑥口口 |⑤-⑥-|
⑦⑧口口 |⑦-⑧-|
52
①②口③ |①-②③|
④⑤口口 |④-⑤-|
口口⑤口
口口①口

口口⑧口
口口口口
⑥⑦口口 |⑥-⑦⑧|
⑨⑩⑩⑥ |⑨-⑩-|
53
①②口⑥ |①-②③|
④⑤③口 |④-⑤-|
⑥⑦⑤① |⑥-⑦-|
⑧⑨口口 |⑧-⑨-|
54
口⑤②口 |①--②|
⑤③⑥② |--③-|
口口口口 |④--⑤|
④口口① |--⑥-|
55
②④③② |①--②|
口⑦⑥口 |--③-|
⑦③④⑥ |④-⑤-|
⑤①①口 |⑥-⑦-|
56
口②口③ |①---|
口④口④ |----|
口②口③ |②--③|
口口口① |--④-|
57
①⑮②⑯ |①②③④|
③⑬④⑭ |⑤⑥⑦⑧|
⑤⑪⑥⑫ |⑨⑩⑪⑫|
⑦⑨⑧⑩ |⑬⑭⑮⑯|
58
①口④⑤ |①--②|
①口④⑤ |--③-|
②口③⑤ |-④--|
②③③⑤ |⑤---|
59
②口口④ |①---|
①口口③ |②---|
①口口③ |③---|
口口口口 |④---|
60
③口①⑥ |①--②|
口②口口 |③-④-|
口口④口 |⑤---|
口⑤口⑥ |⑥---|
61
③口口口 |①--②|
口口②② |③-④-|
①④口口
①口④口

口口口⑦
口口口口
⑦口⑧口 |⑤-⑥-|
口⑤口⑥ |⑦-⑧-|
62
③口口⑦ |①-②-|
口①口② |③-④-|
⑧⑤口⑥ |⑤-⑥-|
③口口④ |⑦-⑧-|
63
③②口⑦ |①-②-|
⑤口④⑤ |③-④-|
口⑥口⑧ |⑤-⑥-|
口①①口 |⑦-⑧-|
64
④②①⑧ |①-②③|
⑦③⑤口 |④-⑤-|
口口⑤⑨ |⑥-⑦-|
口⑥口⑧ |⑧-⑨-|
65
④口②口 |①-②③|
⑤口⑤③ |④-⑤-|
⑤①③口
①口口口

口⑦⑩⑨
口口口口
口口口⑧ |⑥-⑦⑧|
口⑧⑥⑥ |⑨-⑩-|
66
⑬⑨⑫⑯ |①②③④|
⑤①④⑧ |⑤⑥⑦⑧|
⑪③②⑩ |⑨⑩⑪⑫|
⑦⑮⑭⑥ |⑬⑭⑮⑯|
67
口口⑤口 |①--②|
⑥②②口 |--③④|
④①①⑦ |⑤--⑥|
口口口③ |--⑦-|
68
⑥④口② |①--②|
⑦②口口 |--③-|
⑧③③口 |--④⑤|
⑨①①⑤ |⑥⑦⑧⑨|
69
⑩⑦④① |①②③④|
⑪⑧⑤② |⑤⑥⑦⑧|
⑫⑨⑥③ |⑨⑩⑪⑫|
⑯⑮⑭⑬ |⑬⑭⑮⑯|
70
⑩⑦④① |①②③④|
⑪⑧⑤② |⑤⑥⑦⑧|
⑫⑨⑥③ |⑨⑩⑪⑫|
⑯⑮⑭⑬ |⑬⑭⑮⑯|
71
口②口⑤ |①--②|
⑥④口口 |--③④|
口口③① |⑤--⑥|
口口口⑦ |--⑦-|
72
口③④⑥ |①--②|
口③②⑦ |--③-|
口口②⑧ |--④⑤|
⑤①①⑨ |⑥⑦⑧⑨|
73
①④⑦⑩ |①②③④|
②⑤⑧⑪ |⑤⑥⑦⑧|
③⑥⑨⑫ |⑨⑩⑪⑫|
⑬⑭⑮⑯ |⑬⑭⑮⑯|
74
①④⑦口 |①②③④|
②⑤⑧口 |⑤⑥⑦⑧|
③⑥口口
口口口口

⑪口口⑫
⑪口口⑫
口口⑨⑨ |⑨--⑩|
口⑩⑩口 |--⑪⑫|
75
口口口口 |①---|
口口口口 |----|
口口口口 |----|
①口口① |----|


不確定度: 0

最終更新:2013年10月01日 21:26