晴天Bon Voyage
TOMOSUKE × seiya-murai feat. ALT

EXTREME

Level: 9
BPM: 230
Notes: 818

1
口口口口 |----|
口口口口 |----|
口口口口 |----|
口口口口
2
口口口口 |----|
口口口口 |----|
口口口口
口口口口
3
口①④口 |①-②-|
口⑤②口 |③-④-|
口③⑥口 |⑤-⑥-|
口口口口
4
①口口① |①---|
口口口口 |②---|
口口口口
②口口②
5
口口口口 |①-②-|
④口口① |③-④-|
②口口⑤ |⑤-⑥-|
口⑥③口
6
口①①口 |①---|
口口口口 |②---|
口口口口
②口口②
7
①口口④ |①-②-|
⑤口口② |③-④-|
③口口⑥ |⑤-⑥-|
口口口口
8
口①①口 |①---|
口口口口 |②---|
口口口口
②口口②
9
口口口口 |①-②-|
口④①口 |③-④-|
②口口⑤ |⑤-⑥-|
口⑥③口
10
口①①口 |①---|
口口口口 |②---|
口口口口
②口口②
11
①口口④ |①-②-|
①⑤②④ |③-④-|
口③⑥口 |⑤-⑥-|
口口口口
12
口①①口 |①---|
口口口口 |②---|
口口口口
口②②口
13
口口口口 |①-②-|
口⑥③口 |③-④-|
④②⑤① |⑤-⑥-|
④口口①
14
口①①口 |①---|
口口口口 |②---|
口口口口
口②②口
15
口口口口 |①-②-|
①⑤②④ |③-④-|
③①④⑥ |⑤-⑥-|
口口口口
16
①口口① |①---|
口口口口 |②---|
口口口口
②口口②
17
口⑥③口 |①-②-|
口④①口 |③-④-|
口②⑤口 |⑤-⑥-|
口④①口
18
①口口① |①---|
口口口口 |②---|
口口口口
②口口②
19
口口①③ |①---|
口②口口 |--②-|
①①口口 |--③-|
口②②口
20
口口口口 |①---|
①口①口 |②---|
口口口口
②口口②
21
①口口口 |①---|
口②口口 |②-③-|
口④①① |--④-|
口③③口
22
口①口① |①---|
口口口口 |②---|
口口口口
②口口②
23
口口②口 |①---|
口①①口 |--②-|
②②③① |--③-|
口口口口
24
①口口① |①---|
口口口口 |②---|
口口口口
口②②口
25
口①②口 |①---|
口③①② |②-③-|
③口④口 |④---|
口口口④
26
①口口① |①---|
口口口口 |②---|
口口口口
口②②口
27
口①③口 |①-②-|
③④②① |--③-|
口①③口 |--④-|
口口口口
28
①口口① |①---|
口口口口 |②---|
口口口口
②口口②
29
口口口口 |①---|
②④①① |②-③-|
口③③口 |--④-|
口①口口
30
①口口① |①---|
口口口口 |②---|
口口口口
②口口②
31
口①②口 |①---|
②口口① |--②-|
①②③口 |--③-|
口口口口
32
①口口① |①---|
口口口口 |②---|
口口口口
口②②口
33
口①②口 |①---|
口③①② |②-③-|
③口④口 |④---|
口口口④
34
①口口① |①---|
口口口口 |②---|
口口口口
口②②口
35
口①②口 |--①-|
①口口② |②---|
口④③口 |③-④-|
④口口③
36
①口口① |--①-|
口口口口 |----|
口口口口
口口口口
37
口口口口 |--①-|
③②①④ |②---|
②口口① |③-④-|
口③④口
38
口口口口 |--①-|
口口口口 |----|
口①①口
口口口口
39
口①②口 |--①-|
④口口③ |②---|
①口口② |③-④-|
口④③口
40
①口口① |--①-|
口口口口 |----|
口口口口
口口口口
41
口口口口 |--①-|
口②①口 |②---|
②口口① |③-④-|
③③④④
42
①口口① |--①-|
口口口口 |----|
口口口口
口口口口
43
口口①④ |①---|
口口口② |②-③-|
①①口口 |--④-|
口③③口
44
口口口口 |①---|
①口①口 |②---|
口口口口
②口口②
45
①口口口 |①---|
口口口口 |--②-|
②③①① |--③-|
口②②口
46
口①口① |①---|
口口口口 |②---|
口口口口
②口口②
47
口口④口 |①-②-|
③①①② |③-④-|
口④⑤④ |--⑤-|
口口口口
48
①口口① |①---|
口口口口 |②---|
口口口口
口②②口
49
口①②口 |①---|
口③①② |②-③-|
③口④口 |④---|
口口口④
50
①口口① |①---|
口口口口 |②---|
口口口口
口②②口
51
口①④口 |①-②-|
④③②① |③-④-|
⑤①④口 |--⑤-|
口口口口
52
①口口① |①---|
口口口口 |②---|
口口口口
②口口②
53
口口口口 |①---|
②④①① |②-③-|
口③③口 |--④-|
口①口口
54
①口口① |①---|
口口口口 |②---|
口口口口
②口口②
55
口①③口 |①---|
③口②① |②-③-|
①③④口 |--④-|
口口口口
56
①口口① |①---|
口口口口 |②---|
口口口口
口②②口
57
口①②口 |①---|
口③①② |②-③-|
③口④口 |④---|
口口口④
58
①口口① |①---|
口口口口 |②---|
口口口口
口②②口
59
口②②口 |①---|
①口口① |--②-|
口①口② |----|
口口口口
60
口口口口 |①---|
口口②口 |--②-|
①口口口
①口口①
61
⑦口口③ |①-②-|
口④口口 |③-④⑤|
口①⑤口 |⑥-⑦-|
口⑥②口
62
口口口口 |①-②-|
口口口① |③-④-|
②口口口
④口口③
63
口②①② |①---|
①口口口 |--②-|
口①②口 |----|
口口口口
64
口口②口 |①---|
口②口② |--②-|
口口口①
口①①口
65
②口口⑥ |--①-|
口口③口 |②-③④|
①④①口 |⑤-⑥-|
口口⑤①
66
口口口口 |①-②-|
①口口口 |③---|
口口口②
③口口口
67
口①④④ |①---|
口④口① |②-③-|
②口①口 |--④-|
口③口口
68
①②口口 |①---|
口口口口 |②---|
口口口口
口口口口
69
口口口口 |①---|
②③口② |--②-|
口②③③ |--③-|
①口①①
70
①口口① |----|
口口口口 |①---|
口口口口
口口口口
71
口②②口 |①---|
口口口② |--②-|
①口口口 |----|
口①①口
72
①口口① |①---|
口口口口 |----|
口①①口
口口口口
73
②口口② |----|
口口①口 |①---|
口②口口 |--②-|
①口口①
74
口口①口 |----|
①口口口 |①---|
口口口①
口口口口
75
②口口口 |--①-|
口①口口 |----|
口②①口 |②---|
①口口②
76
口①口① |--①-|
口口口口 |----|
①口口口
口口口口
77
口口口口 |①---|
口①①口 |----|
口口口口 |----|
口①①口
78
口口口口 |----|
口口口口 |----|
口口口口
口口口口
79
口口③口 |①---|
②④⑤③ |②---③-|
口②口口 |----④-|
口①①口 |⑤---|
80
①口口① |----|
口③口口 |①---|
①口口① |----|
口口②② |②---③-|
81
③口口③ |①---②-|
口口①口 |----③-|
口④④口 |----|
②②口口 |④---|
82
口口口② |----|
①③口① |①---|
口口口② |----|
①口口① |②---③-|
83
②口口口 |①---②-|
口口①口 |----③-|
②④④口 |----|
口③③口 |④---|
84
①口口① |----|
口口口口 |①---|
①口口① |----|
口口口口 |----|
85
③口①口 |①---|
口口②① |----②-|
②①口③ |----|
口②③口 |③---|
86
口口口口 |----|
①口口① |①---|
②口口② |----|
①口口① |②---|
87
口口③口 |①---|
②④⑤③ |②---③-|
口②口口 |----④-|
口①①口 |⑤---|
88
①口口① |----|
口③口口 |①---|
①口口① |----|
口口②② |②---③-|
89
②①①② |①---|
口口口口 |----②-|
口③③口 |----|
口口口口 |③---|
90
口口口口 |----|
①口口① |①---|
口口口口 |----|
①口口① |----|
91
口③③口 |①---|
口①①口 |----②-|
口口口口 |----|
口②②口 |③---|
92
①口口① |----|
口口口口 |①---|
①口口① |----|
口口口口 |----|
93
③口①口 |①---|
口口②① |----②-|
②①口③ |----|
口②③口 |③---|
94
口口口口 |----|
①口口① |①---|
②口口② |----|
①口口① |②---|
95
口①②② |①---|
③①口口 |--②-|
口①②口 |----|
③③口口 |③---|
96
①口口口 |----|
口④③② |①-②③|
口⑥口口 |④-⑤-|
口口口⑤ |--⑥-|
97
②③③② |①---|
①②口③ |----|
③口②① |②---|
①口①口 |--③-|
98
口口口口 |----|
①口①口 |①---|
口①口口 |----|
①口①口 |----|
99
口口口口 |----|
口口口口 |----|
口口口口 |----|
口口口口 |----|
100
口口①④ |①---|
口口口② |②-③-|
①①口口 |--④-|
口③③口
101
口口口口 |①---|
①口①口 |②---|
口口口口
②口口②
102
①口口口 |①---|
口②口口 |②-③-|
口④①① |--④-|
口③③口
103
口①口① |①---|
口口口口 |②---|
口口口口
②口口②
104
口口④口 |①-②-|
③①①② |③-④-|
口④⑤④ |--⑤-|
口口口口
105
①口口① |①---|
口口口口 |②---|
口口口口
口②②口
106
口①②口 |①---|
口③①② |②-③-|
③口④口 |④---|
口口口④
107
①口口① |①---|
口口口口 |②---|
口口口口
口②②口
108
口①④口 |①-②-|
④③②① |③-④-|
⑤①④口 |--⑤-|
口口口口
109
①口口① |①---|
口口口口 |②---|
口口口口
②口口②
110
口口口口 |①---|
②④①① |②-③-|
口③③口 |--④-|
口①口口
111
①口口① |①---|
口口口口 |②---|
口口口口
②口口②
112
口①③口 |①---|
③口②① |②-③-|
①③④口 |--④-|
口口口口
113
①口口① |①---|
口口口口 |②---|
口口口口
口②②口
114
口①②口 |①---|
口③①② |②-③-|
③口④口 |④---|
口口口④
115
①口口① |①---|
口口口口 |②---|
口口口口
口②②口
116
口口③口 |①---|
②口③口 |--②-|
②①口① |③---|
口口口口
117
口口口口 |----|
口口口口 |----|
口口口口
口口口口
118
口②口① |--①-|
口口口口 |②---|
口口口口 |③-④-|
③口④口
119
口口口口 |--①-|
口口口口 |----|
口①①口
口口口口
120
①口②口 |--①-|
口口口口 |②---|
口口口口 |③-④-|
口④口③
121
口口口口 |--①-|
口①①口 |----|
口口口口
口口口口
122
口②口① |--①-|
口口口口 |②---|
口口口口 |③-④-|
③口④口
123
口口口口 |--①-|
口口口口 |----|
口①①口
口口口口
124
①③②口 |①-②-|
口①④口 |③-④-|
口口口④ |⑤-⑥-|
口⑤⑥口
125
②口口② |①---|
口口口口 |②---|
口口口口
①口口①
126
口①口口 |①-②-|
①口④口 |③-④-|
口③②④ |⑤-⑥-|
口⑤⑥口
127
①口口① |①---|
口口口口 |②---|
口口口口
②口口②
128
口③②口 |①-②-|
①⑤⑥口 |③-④-|
口①口④ |⑤-⑥-|
口口④口
129
②口口② |①---|
口口口口 |②---|
口口口口
①口口①
130
口③②口 |①-②-|
口⑤⑥④ |③-④-|
①口④口 |⑤-⑥-|
口①口口
131
①口口① |①---|
口口口口 |②---|
口口口口
②口口②
132
口口①④ |①---|
口口口② |②-③-|
①①口口 |--④-|
口③③口
133
口口口口 |①---|
①口①口 |②---|
口口口口
②口口②
134
①口口口 |①---|
口口口口 |--②-|
②③①① |--③-|
口②②口
135
口①口① |①---|
口口口口 |②---|
口口口口
②口口②
136
口口④口 |①-②-|
③①①② |③-④-|
口④⑤④ |--⑤-|
口口口口
137
①口口① |①---|
口口口口 |②---|
口口口口
口②②口
138
口①②口 |①---|
口③①② |②-③-|
③口④口 |④---|
口口口④
139
①口口① |①---|
口口口口 |②---|
口口口口
口②②口
140
口①④口 |①-②-|
④③②① |③-④-|
⑤①④口 |--⑤-|
口口口口
141
①口口① |①---|
口口口口 |②---|
口口口口
②口口②
142
口口口口 |①---|
②口①① |②-③-|
口③③口 |--④-|
口①④口
143
①口口① |①---|
口口口口 |②---|
口口口口
②口口②
144
口①④口 |①-②-|
④③②① |③-④-|
①④⑤口 |--⑤-|
口口口口
145
①口口① |①---|
口口口口 |②---|
口口口口
口②②口
146
口①②口 |①---|
口③①② |②-③-|
③口④口 |④---|
口口口④
147
①口口① |①---|
口口口口 |②---|
口口口口
口②②口
148
口②口口 |①---|
①口③① |②-③-|
口①口口 |④---|
④口口口
149
①口口① |①---|
口口口口 |②---|
口口口口
口②②口


不確定度: 0

最終更新:2013年10月01日 21:59