OVERHEAT -Type J-
DOUBLE IMPACT

BASIC

Level: 4
BPM: 155
Notes: 366

1
口口口口 |----|
口口口口 |----|
口口口口 |----|
口口口口 |----|
2
口口口口 |①---|
口①①口 |----|
口口口口 |----|
口口口口 |----|
3
口口口口 |①--②|
口口口口 |--③-|
①②③口 |----|
口口口口 |----|
4
口口口口 |①---|
口①①口 |----|
口口口口 |----|
口口口口 |----|
5
口③③口 |①---|
口②②口 |----|
口口口口 |②---|
口①①口 |③---|
6
口口口④ |①---|
①口口③ |②--③|
口口口② |--④-|
口口口口 |----|
7
口口②口 |①---|
口①③口 |②--③|
口口④口 |--④-|
口口口口 |----|
8
口口口口 |①---|
①②③④ |②---|
口口口口 |③---|
口口口口 |④---|
9
口口口口 |①---|
④④口口 |②---|
口口②① |③---|
③③口口 |④---|
10
①③②口 |①---|
口④口口 |②---|
①口口口 |③---|
口口口口 |④---|
11
口口口口 |①---|
口口①② |②---|
口口④③ |③---|
口口口口 |④---|
12
口口口口 |①---|
口①口② |----|
口①口② |②---|
口口口口 |----|
13
④①①④ |①---|
口②②口 |②---|
口口口口 |③---|
③口口③ |④---|
14
口口口口 |①---|
口①①口 |②---|
口②③④ |③---|
口口口口 |④---|
15
口口口口 |①---|
④③②① |②---|
口口口口 |③---|
口口口口 |④---|
16
口①①口 |①---|
口口口口 |----|
口②②口 |②---|
口③③口 |③---|
17
②①①② |①---|
②口口② |----|
口口口口 |②---|
口口口口 |----|
18
口口口口 |①---|
口①②口 |②---|
口④③口 |③---|
口口口口 |④---|
19
口口口口 |①---|
口①②口 |②---|
口④③口 |③---|
口口口口 |④---|
20
①口口② |①---|
口口口口 |②---|
口口口口 |③---|
④口口③ |④---|
21
①口口② |①---|
口口口口 |②---|
④口口口 |③---|
口④口③ |④---|
22
口口口口 |①---|
口①②口 |②---|
口④③口 |③---|
口口口口 |④---|
23
口口口口 |①---|
口①②口 |②---|
口④③口 |③---|
口口口口 |④---|
24
①口口② |①---|
口口口口 |②---|
口口口口 |③---|
④口口③ |④---|
25
①口口② |①---|
口口口口 |②---|
口口口口 |③---|
④口口③ |④---|
26
口口口口 |①---|
①②③④ |②---|
①②③④ |③---|
口口口口 |④---|
27
②口口④ |①---|
口口口口 |②---|
口口口口 |③---|
①口口③ |④---|
28
口口口口 |①---|
口①①口 |----|
口③③口 |②---|
口②②口 |③---|
29
③①②③ |①-②-|
口口口口 |--③-|
口口口口 |----|
口口口口 |----|
30
口口口口 |①---|
①②③④ |②---|
①②③④ |③---|
口口口口 |④---|
31
②口口④ |①---|
口口口口 |②---|
口口口口 |③---|
①口口③ |④---|
32
口口口口 |①---|
口①①口 |----|
②③④口 |--②-|
口口口口 |③-④-|
33
口②②口 |①---|
口口口口 |②---|
口④④① |③---|
口③③口 |④---|
34
①口口① |①---|
②口口② |②---|
③口口③ |③---|
④口口④ |④---|
35
口①①口 |①---|
②③④口 |----|
口口口口 |--②-|
口口口口 |③-④-|
36
口③③口 |①---|
口口口① |②---|
口口口口 |③---|
④②②④ |④---|
37
①口口① |①---|
口口口口 |----|
口口口口 |----|
口口口口 |----|
38
口③④口 |①---|
①⑤⑥② |②---|
①口口② |③-④-|
口口口口 |⑤-⑥-|
39
口口口口 |①---|
口④口口 |--②-|
口①口口 |③---|
口②③口 |--④-|
40
口④口口 |①---|
口口①口 |--②-|
口②③口 |③---|
口口口口 |--④-|
41
口口①口 |①---|
口口口口 |----|
口②②口 |----|
口口口口 |②---|
42
②④口口 |①---|
口口口口 |②---|
①③口口 |③---|
口口口口 |④---|
43
口口③③ |①---|
口口①② |②---|
口口④④ |③---|
口口口口 |④---|
44
口口口口 |①---|
②④口口 |②---|
口口口口 |③---|
①③口口 |④---|
45
口口④④ |①---|
口口②② |②---|
口口③③ |③---|
口口①① |④---|
46
②④口口 |①---|
口口口口 |②---|
①③口口 |③---|
口口口口 |④---|
47
口口③③ |①---|
口口①② |②---|
口口④④ |③---|
口口口口 |④---|
48
口口口口 |①---|
②④口口 |②---|
口口口口 |③---|
①③口口 |④---|
49
口口④④ |①---|
口口②② |②---|
口口③③ |③---|
口口①① |④---|
50
④④口口 |①---|
②②口口 |②---|
③③口口 |③---|
①①口口 |④---|
51
口口③③ |①---|
口口②② |②---|
口口④④ |③---|
口口①① |④---|
52
④④口口 |①---|
②②口口 |②---|
③③口口 |③---|
①①口口 |④---|
53
口口④④ |①---|
口口①① |②---|
口口③③ |③---|
口口②② |④---|
54
④④口口 |①---|
①①口口 |②---|
③③口口 |③---|
②②口口 |④---|
55
口口③③ |①---|
口口②② |②---|
口口④④ |③---|
口口①① |④---|
56
口口口口 |①-②-|
口①②口 |----|
口口口口 |③---|
口③③口 |----|
57
①口口① |①---|
②口口② |②---|
③口口③ |③---|
④口口④ |④---|
58
①①①① |①---|
②②②② |----|
口口口口 |②---|
口口口口 |----|
59
口口口口 |①---|
口口口口 |----|
①①①① |②---|
②②②② |----|
60
①①①① |①---|
口口口口 |----|
②②②② |②---|
口口口口 |----|
61
口口口口 |①---|
①①①① |----|
口口口口 |②---|
②②②② |----|
62
①①①① |①---|
口②③④ |②---|
口口口口 |③---|
口口口口 |④---|
63
口口口口 |①---|
口口口口 |②---|
①②③④ |③---|
口口口口 |④---|
64
口口口口 |①---|
①②③④ |②---|
口口口口 |③---|
口口口口 |④---|
65
③口口③ |①---|
口口口口 |②---|
口②②口 |③---|
口①①口 |----|
66
口口口口 |①---|
④①①④ |②---|
③口口③ |③---|
②口口② |④---|
67
①②②① |①---|
口③③口 |②---|
口口口口 |③---|
口口口口 |----|
68
口口口口 |①---|
口口口口 |----|
口口口口 |----|
口①①口 |----|


不確定度: 0

最終更新:2013年04月29日 17:34