FIGHTERS
三代目 J Soul Brothers

EXTREME

Level: 9
BPM: 115
Notes: 740

1
口口口口 |----|
口口口口 |----|
口口口口 |----|
口口口口 |----|
2
口口口口 |----|
口口口口 |----|
口口口口 |----|
口口口口 |----|
3
①口口② |①②-③|
口口口③ |-④-⑤|
口①口④
口口口⑤

⑧⑨⑨口
口口⑥口
口口⑦口 |-⑥-⑦|
口口口口 |⑧-⑨-|
4
口②②口 |①---|
口口口口 |--②-|
口口口口
口①①口

口口口口
口口④口
⑤③口口 |-③④⑤|
口口⑥口 |⑥---|
5
口⑤⑤② |①②-③|
①口口③ |-④⑤-|
口口口④
口口口口

口⑧⑧口
口⑥⑥口
口口口口 |⑥-⑦-|
⑦口口⑦ |--⑧-|
6
口口口口 |----|
口口口口 |①---|
口口口口
①口口①

口③③口
口口口口
口口口口 |----|
②口口② |②-③-|
7
①口②口 |①---|
口口口口 |--②-|
口①口口
口口口口

③口口口
⑦④③口
口口⑤口 |--③-|
口⑥口口 |④⑤⑥--⑦--|
8
口口①① |①---|
口口口② |--②③|
口口③口
口口口口

口口口⑤
⑧⑧④口
口口口⑥ |④⑤⑥-|
口口⑦口 |⑦-⑧-|
9
④④口口 |①-②③|
口口⑤口 |④--⑤|
①①③口
②口口口

口口口口
⑧口口口
口口口⑥ |-⑥-⑦|
⑧口⑦⑧ |⑧---|
10
口口口② |①②-③|
口口口③ |-④--|
①口口口
④口口④

口⑤⑥口
⑦⑩⑩⑧
⑨口口口 |⑤⑥⑦⑧|
口口口口 |⑨-⑩-|
11
①口④① |①--②|
②口口③ |③-④-|
口口口口
④口口口

⑦⑤口⑧
口口口口
口⑥⑥口 |⑤-⑥-|
口⑧⑦⑤ |⑦-⑧-|
12
⑦⑧⑨⑩ |①--②|
④①①⑤ |③-④-|
②口口③ |⑤-⑥⑦|
⑤⑥⑥④ |⑧⑨⑩-|
13
口口口口 |①--②|
⑤④③② |③④⑤-|
口①①口
口口口口

口⑧⑨口
⑩口口⑩
口⑥⑥口 |⑥-⑦⑧|
口⑦⑦口 |⑨-⑩-|
14
口口口口 |①--②|
口④口口 |③-④-|
①②③①
④口口口

口⑤⑧口
⑦⑧⑥⑧
⑤口⑧口 |⑤-⑥-|
口⑦口⑥ |⑦-⑧-|
15
②①口① |①--②|
④口③口 |③-④-|
口①口①
口口口口

口⑧口口
⑧⑥⑧⑥
口⑧⑤⑤ |⑤-⑥-|
⑦⑦⑤⑤ |⑦-⑧-|
16
①口①口 |①---|
口⑤口口 |②③④⑤|
①口①口
口②③④

口口⑦⑦
口口⑨⑥
⑧⑨⑧⑨ |⑥-⑦-|
口口⑨口 |⑧-⑨-|
17
②口⑤口 |①--②|
⑥①口① |③④⑤⑥|
④口③口
口①口①

口⑧口⑧
口⑩口口
⑩⑨⑩⑨ |⑦-⑧-|
口⑩口⑦ |⑨-⑩-|
18
②口口⑤ |①--②|
①⑥①口 |③④⑤⑥|
口④口口
①口①③

口⑩⑦口
⑩口⑩口
⑧⑩⑧口 |⑦-⑧-|
口⑨口⑨ |⑨-⑩-|
19
②②口口 |----|
口口口口 |①---|
③口①① |②---|
口口①口 |③---|
20
②口口② |①---②--③|
口口③④ |④-⑤-|
⑤口口⑤
口①①口

口⑥⑬⑨
⑩⑧⑪口
口口口口 |⑥⑦⑧⑨|
⑫口⑦口 |⑩⑪⑫⑬|
21
①口口口 |①②③④|
⑥⑥口② |⑤-⑥-|
⑤⑤口口
口③口④

⑦⑦口⑧
⑪口口口
⑪口口⑩ |⑦-⑧⑨|
⑨口口口 |⑩-⑪-|
22
口②①② |①---|
口①口① |②---|
口②①②
口口口口

④口③口
口口口⑦
⑥口口⑦ |-③④⑤|
口口口⑤ |⑥-⑦-|
23
②①②口 |①---|
①口①口 |②---|
②①②口
口口口口

口口口③
口⑤⑤口
口口口口 |③-④-|
④口口口 |⑤---|
24
①口口④ |--①②|
口口口口 |③④⑤⑥|
③口口②
口⑤⑥口

口⑧口口
⑩⑦⑦⑨
⑪⑦⑦⑪ |⑦-⑧⑨|
口口口口 |⑩-⑪-|
25
口②②口 |①-②③|
⑤③③⑤ |④-⑤-|
口④④口
①口口①

口口口⑦
⑩口口口
⑩口口⑨ |⑥-⑦⑧|
⑧⑥⑥口 |⑨-⑩-|
26
口②①② |①---|
口①口① |②---|
口②①②
口口口口

④口③口
口口口⑦
⑥口口⑦ |-③④⑤|
口口口⑤ |⑥-⑦-|
27
②①②口 |①---|
①口①口 |②---|
②①②口
口口口口

口③口口
口⑤口④
口口口口 |③-④-|
口⑥口⑥ |⑤-⑥-|
28
①①口口 |①---|
①②②② |②---|
①①②口
①口②口

口③口口
⑦⑥⑥口
口口口④ |-③④⑤|
⑤口口⑧ |⑥-⑦⑧|
29
口④口② |-①-②|
口口口口 |③④⑤⑥|
⑥⑤口③
口①①口

口口⑩⑩
口⑧口⑨
口口⑦口 |⑦⑧⑨-|
口⑪口口 |⑩-⑪-|
30
①①口口 |①---|
①②②② |②---|
①①②口
①口②口

③口口口
⑤口口口
口口口④ |--③④|
口口⑥口 |--⑤⑥|
31
口⑤⑤口 |①②③④|
口口②口 |⑤-⑥-|
③①④口
⑥口口⑥

口口口⑦
口口口⑦
口⑦口⑦ |⑦---|
口⑧⑦口 |--⑧-|
32
①①口口 |①-②-|
①②②② |----|
①①②口 |----|
①口②口 |----|
33
⑧口口② |①②-③|
①口⑥③ |-④-⑤|
口口⑦④ |-⑥-⑦|
口口口⑤ |⑧---|
34
口口口② |①②-③|
①口⑥③ |-④-⑤|
口口⑦④ |-⑥-⑦|
⑧口口⑤ |⑧---|
35
⑧口口② |①②-③|
①口⑥③ |-④-⑤|
口口⑦④ |-⑥-⑦|
口口口⑤ |⑧---|
36
口口口口 |①---|
①①②② |②---|
口①口口
口口口口

④④⑤⑤
④③口口
④④口口 |③---|
④口口口 |④-⑤-|
37
口口口口 |①②③④|
⑤①⑥② |-⑤⑥-|
口口口口
口③口④

⑧口⑨口
口⑩口⑪
口⑦⑦口 |⑦-⑧⑨|
口口口口 |⑩⑪--|
38
口③口④ |①②-③|
口口口口 |④-⑤⑥|
①口②口
⑤口⑥口

⑪⑫口口
口⑦口⑧
口⑨口⑩ |-⑦⑧⑨|
口口口口 |⑩-⑪⑫|
39
口口口⑤ |①②③④|
①②⑥⑦ |-⑤⑥⑦|
③④口口
口口口口

口口口口
口⑫⑬口
口口⑧⑨ |⑧⑨⑩⑪|
口口⑩⑪ |--⑫⑬|
40
⑥口口⑦ |①②③④|
口⑧⑨口 |⑤--⑥|
⑩①②⑪ |⑦⑧⑨⑩|
⑤③④口 |⑪---|
41
⑥⑥口口 |①②③④|
①口口④ |⑤-⑥-|
口口②口
③⑤口口

口口口口
⑧⑪⑦口
⑩⑩口⑨ |⑦⑧⑨⑩|
口口⑫口 |-⑪⑫-|
42
口口⑥⑥ |①②③④|
④⑦①口 |⑤-⑥⑦|
口口⑤口
②口口③

⑪⑪口口
口口⑩口
⑫口口⑧ |⑧⑨⑩⑪|
口⑨⑬口 |-⑫⑬-|
43
⑤口口⑥ |①②③④|
口①⑧④ |⑤⑥⑦⑧|
⑦③②口
口口口口

口口⑪口
⑨⑬口⑯
⑮口⑫⑭ |⑨⑩⑪⑫|
⑩口口口 |⑬⑭⑮⑯|
44
口①口③ |①-②③|
口口②口 |--④-|
口口口口
口④口口

⑤⑤口口
⑤⑥⑥⑥
⑤⑤⑥口 |⑤--⑥|
⑤口⑥口 |----|
45
③③口口 |①---|
口口②② |②---|
④口②口 |③---|
①口口① |④---|
46
②口口② |①---②--③|
口口③④ |④-⑤-|
⑤口口⑤
口①①口

口⑥⑬⑨
⑩⑧⑪口
口口口口 |⑥⑦⑧⑨|
⑫口⑦口 |⑩⑪⑫⑬|
47
①口口口 |①②③④|
⑥⑥口② |⑤-⑥-|
⑤⑤口口
口③口④

⑦⑦口⑧
⑪口口口
⑪口口⑩ |⑦-⑧⑨|
⑨口口口 |⑩-⑪-|
48
口②①② |①---|
口①口① |②---|
口②①②
口口口口

④口③口
口口口⑦
⑥口口⑦ |-③④⑤|
口口口⑤ |⑥-⑦-|
49
②①②口 |①---|
①口①口 |②---|
②①②口
口口口口

口④④口
③口口③
口口口口 |③---|
口口口口 |④---|
50
②口口③ |①-②③|
口口口口 |④-⑤⑥|
⑤④口⑥
口①①口

口口⑧口
⑦⑦⑧⑦
口口⑨⑪ |⑦-⑧-|
口⑩⑨口 |⑨-⑩⑪|
51
①口口口 |①-②③|
⑤⑤口③ |④-⑤-|
④④口口
②口口口

⑥⑥口⑦
⑩口口口
⑩口口⑨ |⑥-⑦⑧|
⑧口口口 |⑨-⑩-|
52
口②①② |①---|
口①口① |②---|
口②①②
口口口口

④口③口
口口口⑦
⑥口口⑦ |-③④⑤|
口口口⑤ |⑥-⑦-|
53
②①②口 |①---|
①口①口 |②---|
②①②口
口口口口

口③口口
口⑤口④
口口口口 |③-④-|
口⑥口⑥ |⑤-⑥-|
54
①①口口 |①---|
①②②② |②---|
①①②口
①口②口

口③③口
口口口口
口④⑤口 |--③-|
⑥⑦口口 |④⑤⑥⑦|
55
③口口口 |①②--|
口口口④ |--③④|
口口口口
口口①②

口口⑧⑧
口⑦⑧口
⑤口⑥⑧ |⑤⑥⑦-|
口⑨⑧⑧ |⑧-⑨-|
56
①①口口 |①---|
①②②② |②---|
①①②口
①口②口

口④④口
⑤口口⑥
口口口口 |--③-|
③口口③ |④-⑤⑥|
57
①口口① |-①--|
④⑥③口 |-②③④|
口①①口 |⑤-⑥-|
②⑦口⑤ |--⑦-|
58
①①口口 |①-②-|
①②②② |----|
①①②口 |----|
①口②口 |----|


不確定度: 0

タグ:

+ タグ編集
  • タグ:

このサイトはreCAPTCHAによって保護されており、Googleの プライバシーポリシー利用規約 が適用されます。

最終更新:2013年04月07日 23:05