OVERHEAT -Type J-
DOUBLE IMPACT

ADVANCED

Level: 9
BPM: 155
Notes: 623

1
口口口口 |----|
口口口口 |----|
口口口口 |----|
口口口口 |----|
2
①口口口 |①--②|
②口口口 |--③-|
③口口口 |----|
口口口口 |----|
3
①口①① |①--②|
②口②② |--③-|
③口③③ |----|
口口口口 |----|
4
口④④口 |①---|
口③③口 |②---|
口②②口 |③---|
口①①口 |④---|
5
②口口② |①---|
⑥⑤③④ |②---|
⑩⑨⑦⑧ |③④⑤⑥|
①口口① |⑦⑧⑨⑩|
6
口口②② |①---|
③③口口 |②--③|
口口口口 |--④-|
④④①① |----|
7
①①口口 |①---|
口口③③ |②--③|
②②口口 |--④-|
口口④④ |----|
8
②口口④ |①---|
口①③口 |②---|
②口口④ |③---|
口①③口 |④---|
9
③③③③ |①---|
②口口② |②---|
④④④④ |③---|
①口口① |④---|
10
③口口② |①---|
①①①① |②-③-|
口口口口
口口口口

口口口口
口⑦⑥口
⑤口口④ |④-⑤-|
口口口口 |⑥-⑦-|
11
口②①口 |①-②-|
④口口③ |③-④-|
口⑥⑤口 |⑤-⑥-|
⑧口口⑦ |⑦-⑧-|
12
⑧口口④ |①-②-|
口⑥②口 |③-④-|
⑦口口③ |⑤-⑥-|
口⑤①口 |⑦-⑧-|
13
口⑤①口 |①-②-|
口⑥②口 |③-④-|
口⑦③口 |⑤-⑥-|
口⑧④口 |⑦-⑧-|
14
口④③口 |①-②-|
②口口口 |③-④-|
口口①①
口口口口

口口口口
⑧口口⑥
口口口口 |⑤-⑥-|
⑦口口⑤ |⑦-⑧-|
15
⑧口口⑥ |①-②-|
口④②口 |③-④-|
⑦③①⑤ |⑤-⑥-|
口口口口 |⑦-⑧-|
16
③口口③ |①---|
①③③① |----|
②①①② |②---|
口②②口 |③---|
17
②口口② |①---|
①②②① |----|
②①①② |②---|
①口口① |----|
18
③③⑦⑦ |①-②-|
②④⑥⑧ |③-④-|
④②⑧⑥ |⑤-⑥-|
①①⑤⑤ |⑦-⑧-|
19
②④⑥⑧ |①-②-|
②④⑥⑧ |③-④-|
③①⑦⑤ |⑤-⑥-|
③①⑦⑤ |⑦-⑧-|
20
③③⑦⑦ |①-②-|
②④⑥⑧ |③-④-|
④②⑧⑥ |⑤-⑥-|
①①⑤⑤ |⑦-⑧-|
21
②④⑥口 |①-②-|
②④⑥⑦ |③-④-|
③①⑦⑤ |⑤-⑥-|
③①口⑤ |⑦---|
22
③③⑦⑦ |①-②-|
②④⑥⑧ |③-④-|
④②⑧⑥ |⑤-⑥-|
①①⑤⑤ |⑦-⑧-|
23
②④⑥⑧ |①-②-|
②④⑥⑧ |③-④-|
③①⑦⑤ |⑤-⑥-|
③①⑦⑤ |⑦-⑧-|
24
③③⑦⑦ |①-②-|
②④⑥⑧ |③-④-|
④②⑧⑥ |⑤-⑥-|
①①⑤⑤ |⑦-⑧-|
25
②④⑥⑧ |①-②-|
②④⑥⑧ |③-④-|
③①⑦⑤ |⑤-⑥-|
③①⑦⑤ |⑦-⑧-|
26
⑧④口口 |①-②-|
②⑥口口 |③-④-|
⑤③口口 |⑤-⑥-|
①⑦口口 |⑦-⑧-|
27
口口④⑧ |①-②-|
口口⑥② |③-④-|
口口③⑤ |⑤-⑥-|
口口⑦① |⑦-⑧-|
28
口②②口 |①---|
③口口口 |----|
口①①口 |②---|
④口口口 |③-④-|
29
口口口口 |①-②-|
口③③② |--③-|
口③③口 |----|
口口口① |----|
30
⑧④口口 |①-②-|
②⑥口口 |③-④-|
⑤③口口 |⑤-⑥-|
①⑦口口 |⑦-⑧-|
31
口口④⑧ |①-②-|
口口⑥② |③-④-|
口口③⑤ |⑤-⑥-|
口口⑦① |⑦-⑧-|
32
口口口口 |①---|
②③④口 |----|
口①①口 |--②-|
口口口口 |③-④-|
33
口③③口 |①--②|
口口口① |③---|
口②②口
口口口口

口口口口
⑤口口⑤
口口口口 |④---|
④口口④ |⑤---|
34
①⑦②① |①---|
口⑥③口 |②-③-|
①⑤④① |④-⑤-|
口口口口 |⑥-⑦-|
35
①口口口 |①---|
⑦⑥⑤口 |----|
口④③② |--②③|
口口口口 |④⑤⑥⑦|
36
口口口① |①---|
口⑦⑥口 |②-③-|
口④⑤口 |④-⑤-|
口③②口 |⑥-⑦-|
37
口①口口 |①---|
口口口口 |----|
口口口口 |----|
口口口口 |----|
38
①口⑥① |①---|
口口⑤口 |②---|
口③④口 |③-④-|
②口口② |⑤-⑥-|
39
口①口口 |①---|
口③口口 |--②-|
口口口口 |③---|
口②④口 |--④-|
40
③口口口 |①---|
口口①口 |--②-|
口口口口 |③---|
②口口④ |--④-|
41
口口口① |①---|
口口口口 |----|
口②②口 |----|
口口口口 |②---|
42
⑧⑨口口 |①-②-|
①②③口 |③-④⑤|
口口⑦⑤ |-⑥⑦-|
口口⑥④ |⑧-⑨-|
43
口⑥⑧口 |①-②-|
①口口② |③-④-|
③口口④ |⑤-⑥-|
口⑤⑦口 |⑦-⑧-|
44
⑧⑨口口 |①-②-|
①②③口 |③-④⑤|
口口⑦⑤ |-⑥⑦-|
口口⑥④ |⑧-⑨-|
45
口口口口 |①-②-|
①②⑤⑥ |③-④-|
④③⑧⑦ |⑤-⑥-|
口口口口 |⑦-⑧-|
46
⑧⑨口口 |①-②-|
①②③口 |③-④⑤|
口口⑦⑤ |-⑥⑦-|
口口⑥④ |⑧-⑨-|
47
口⑥⑧口 |①-②-|
①口口② |③-④-|
③口口④ |⑤-⑥-|
口⑤⑦口 |⑦-⑧-|
48
⑧⑨口口 |①-②-|
①②③口 |③-④⑤|
口口⑦⑤ |-⑥⑦-|
口口⑥④ |⑧-⑨-|
49
口口口口 |①-②-|
①②⑤⑥ |③-④-|
④③⑧⑦ |⑤-⑥-|
口口口口 |⑦-⑧-|
50
①②⑤⑥ |①-②-|
④③⑧⑦ |③-④-|
口口口口 |⑤-⑥-|
口口口口 |⑦-⑧-|
51
口口口口 |①-②-|
口口口口 |③-④-|
①②⑤⑥ |⑤-⑥-|
④③⑧⑦ |⑦-⑧-|
52
②①⑥⑤ |①-②-|
③④⑦⑧ |③-④-|
口口口口 |⑤-⑥-|
口口口口 |⑦-⑧-|
53
口口口口 |①-②-|
口口口口 |③-④-|
①②⑥⑤ |⑤-⑥-|
④③⑦⑧ |⑦-⑧-|
54
①②⑤⑥ |①-②-|
④③⑧⑦ |③-④-|
口口口口 |⑤-⑥-|
口口口口 |⑦-⑧-|
55
口口口口 |①-②-|
口口口口 |③-④-|
①②⑤⑥ |⑤-⑥-|
④③⑧⑦ |⑦-⑧-|
56
①口③④ |①-②-|
②②口口 |③-④-|
口⑥⑤⑤ |⑤-⑥-|
⑧⑦口口 |⑦-⑧-|
57
口口口⑦ |①-②-|
②③④口 |③-④-|
①⑥⑤⑦ |⑤-⑥-|
口口口口 |⑦---|
58
①⑤⑤⑤ |①-②-|
②⑥口口 |③-④-|
③⑦口口 |⑤-⑥-|
④⑧①① |⑦-⑧-|
59
①⑤⑤⑤ |①-②-|
②⑥口口 |③-④-|
③⑦口口 |⑤-⑥-|
④⑧①① |⑦-⑧-|
60
①⑤⑤⑤ |①-②-|
②⑥口口 |③-④-|
③⑦口口 |⑤-⑥-|
④⑧①① |⑦-⑧-|
61
①⑤⑤⑤ |①-②-|
②⑥口口 |③-④-|
③⑦口口 |⑤-⑥-|
④⑧①① |⑦-⑧-|
62
④⑧口口 |①-②-|
②⑥口口 |③-④-|
①⑤口口 |⑤-⑥-|
③⑦①① |⑦-⑧-|
63
口口④⑧ |①-②-|
口口②⑥ |③-④-|
口口①⑤ |⑤-⑥-|
口口③⑦ |⑦-⑧-|
64
⑧④④⑧ |①-②-|
⑥②②⑥ |③-④-|
⑤①①⑤ |⑤-⑥-|
⑦③③⑦ |⑦-⑧-|
65
口③③口 |①---|
口①①口 |②---|
口口口口 |③---|
口②②口 |----|
66
②③④⑤ |①---|
⑥⑦⑧⑨ |②③④⑤|
⑩⑪⑫⑬ |⑥⑦⑧⑨|
①①①① |⑩⑪⑫⑬|
67
⑤⑥⑦⑧ |①②③④|
口⑨⑩口 |⑤⑥⑦⑧|
口口口口 |⑨⑩--|
①②③④ |----|
68
口口口口 |①---|
口口口口 |----|
口口口口 |----|
①①①① |----|


不確定度: 0

最終更新:2013年04月29日 17:34