雨ノチHello
TLION69

BASIC

Level: 4
BPM: 189
Notes: 275

1
口口口口 |----|
口口口口 |----|
口口口口 |----|
口口口口 |----|
2
口口口口 |①---|
口口口口 |----|
口①①口 |----|
口口口口 |----|
3
口口口口 |----|
口口口口 |----|
口口口口 |----|
口口口口 |----|
4
口口口口 |①---|
口①①口 |----|
口口口口 |----|
口口口口 |----|
5
口①①口 |①---|
口口口口 |----|
口口口口 |----|
口口口口 |----|
6
口口口口 |①---|
口口口口 |②---|
③口口④ |③---|
①口口② |④---|
7
③口口④ |①---|
①口口② |②---|
口口口口 |③---|
口口口口 |④---|
8
口口口口 |①---|
口口口口 |②---|
口③④口 |③---|
口①②口 |④---|
9
口③④口 |①---|
口①②口 |②---|
口口口口 |③---|
口口口口 |④---|
10
①口口② |①---|
口口口口 |----|
口口口口 |②---|
口口口口 |----|
11
口口口口 |①---|
口口口口 |②---|
口③④口 |③---|
口①②口 |④---|
12
口口口口 |①---|
①口口② |----|
口口口口 |②---|
口口口口 |----|
13
口口口口 |①---|
口口口口 |②---|
口①②口 |③---|
口③④口 |④---|
14
①口口② |①---|
口口口口 |----|
口口口口 |②---|
口口口口 |----|
15
口口口口 |①---|
口口口口 |②---|
口③④口 |③---|
口①②口 |④---|
16
口口口口 |①---|
①口口② |----|
口口口口 |②---|
口口口口 |----|
17
口口口口 |①---|
口口口口 |②---|
口①②口 |③---|
口③④口 |④---|
18
口口口口 |----|
口口口口 |----|
口口口口 |----|
口口口口 |----|
19
口口口口 |①---|
口口口口 |----|
口口口② |②---|
口口口① |----|
20
①①口口 |①---|
口口口口 |----|
②②口口 |②---|
口口口口 |----|
21
口口口口 |①---|
口口口口 |----|
②口口口 |②---|
①口口口 |----|
22
口口①① |①---|
口口口口 |----|
口口②② |②---|
口口口口 |----|
23
③③口口 |----|
②②口口 |①---|
①①口口 |②---|
口口口口 |③---|
24
口口③③ |----|
口口②② |①---|
口口①① |②---|
口口口口 |③---|
25
口口口口 |----|
口③③口 |①---|
口②②口 |②---|
口①①口 |③---|
26
①口口① |①---|
③口口③ |②---|
②口口② |③---|
④口口④ |④---|
27
口口口口 |①---|
口口口口 |②---|
口③④口 |③---|
口①②口 |④---|
28
口口口口 |①---|
①②③④ |②---|
口口口口 |③---|
口口口口 |④---|
29
口①②口 |①---|
口③④口 |②---|
口口口口 |③---|
口口口口 |④---|
30
口口口口 |①---|
口口口口 |②---|
口口口口 |③---|
①②③④ |④---|
31
③③口口 |----|
②②口口 |①---|
①①口口 |②---|
口口口口 |③---|
32
口口③③ |----|
口口②② |①---|
口口①① |②---|
口口口口 |③---|
33
口口口口 |----|
口③③口 |①---|
口②②口 |②---|
口①①口 |③---|
34
①口口① |①---|
③口口③ |②---|
②口口② |③---|
④口口④ |④---|
35
②口口口 |①---|
口口口口 |----|
口①①口 |②---|
口口口口 |----|
36
口口口口 |①---|
①口口口 |----|
②口口口 |②---|
口口口口 |----|
37
口口口② |①---|
口口口口 |----|
口口口口 |②---|
①口口口 |----|
38
口口口口 |①---|
口口口① |----|
口口口② |②---|
口口口口 |----|
39
口口口口 |①---|
口口口口 |②---|
口④③口 |③---|
②口口① |④---|
40
口④③口 |①---|
②口口① |②---|
口口口口 |③---|
口口口口 |④---|
41
①口口① |①---|
②口口② |②---|
③口口③ |③---|
④口口④ |④---|
42
口口口口 |①---|
口②②口 |----|
口口口口 |②---|
口①①口 |----|
43
口口口口 |----|
口口口口 |----|
口口口口 |----|
口口口口 |----|
44
口③口口 |①---|
②①①② |②---|
②①①② |----|
口口口口 |③---|
45
口口①口 |①---|
口②③口 |②---|
口④口口 |③---|
口口口口 |④---|
46
口口口口 |①---|
口口口口 |----|
口口①口 |----|
口②口口 |②---|
47
②口口② |①---|
口口口口 |--②-|
口口口口 |----|
口口①口 |----|
48
③口口口 |①---|
②①①② |②---|
②①①② |----|
口口口口 |③---|
49
口口口① |①---|
口②③口 |②---|
④口口口 |③---|
口口口口 |④---|
50
口口口口 |①---|
口口口口 |----|
口口口① |----|
口②口口 |②---|
51
②口口② |①---|
口①①口 |----|
口口口口 |②---|
口口口口 |----|
52
口③口口 |①---|
②①①② |②---|
②①①② |----|
口口口口 |③---|
53
口口①口 |①---|
口②③口 |②---|
口④口口 |③---|
口口口口 |④---|
54
口口口口 |①---|
口口口口 |----|
口口①口 |----|
口②口口 |②---|
55
②口口② |①---|
口口口口 |--②-|
口口口口 |----|
口口①口 |----|
56
③口口口 |①---|
②①①② |②---|
②①①② |----|
口口口口 |③---|
57
口口口① |①---|
口②③口 |②---|
④口口口 |③---|
口口口口 |④---|
58
口口口口 |①---|
口口口口 |----|
口口口① |----|
口②口口 |②---|
59
①口口① |①---|
口口口口 |----|
口②②口 |②---|
口口口口 |----|
60
①②②① |①---|
①②②① |②---|
口口口口 |----|
口口口口 |----|
61
口口口口 |----|
口口口口 |----|
口口口口 |----|
口口口口 |----|
62
口口口口 |①---|
口口口口 |②---|
①②②① |----|
①②②① |----|
63
④口口④ |①---|
③口口③ |②---|
②口口② |③---|
①口口① |④---|
64
口口口口 |----|
口口口口 |----|
口口口口 |----|
口口口口 |----|
65
口口口口 |----|
②②口口 |----|
①①口口 |①---|
口口口口 |②---|
66
①①口口 |①---|
口口口口 |----|
口口口口 |----|
口口口口 |----|
67
口口口口 |----|
口口②② |----|
口口①① |①---|
口口口口 |②---|
68
口口①① |①---|
口口口口 |----|
口口口口 |----|
口口口口 |----|
69
口口口口 |----|
口口口口 |----|
口②②口 |①---|
口①①口 |②---|
70
口口口口 |①---|
口①①口 |----|
口口口口 |----|
口口口口 |----|
71
口口口口 |----|
口口口口 |----|
口口口口 |----|
口口口口 |----|
72
①口口① |①---|
口口口口 |----|
②口口② |②---|
口口口口 |----|


不確定度: 0

最終更新:2013年04月29日 17:30