雨ノチHello
TLION69

ADVANCED

Level: 7
BPM: 189
Notes: 437

1
口口口口 |----|
口口口口 |----|
口口口口 |----|
口口口口 |----|
2
口口口口 |①-②-|
口口口口 |----|
口①①口 |----|
口②②口 |----|
3
口口口口 |----|
口口口口 |----|
口口口口 |----|
口口口口 |----|
4
③口口③ |①-②-|
口口口口 |----|
口①①口 |③---|
口②②口 |----|
5
口口口口 |①---|
口口口口 |----|
①口口① |②---|
②口口② |----|
6
口⑦⑧口 |①-②-|
口⑤⑥口 |③-④-|
口③④口 |⑤-⑥-|
口①②口 |⑦-⑧-|
7
⑦口口⑧ |①-②-|
⑤口口⑥ |③-④-|
③口口④ |⑤-⑥-|
①口口② |⑦-⑧-|
8
⑦口口⑧ |①-②-|
口⑤⑥口 |③-④-|
③口口④ |⑤-⑥-|
口①②口 |⑦-⑧-|
9
⑦⑦口口 |①-②-|
⑤口口⑥ |③-④-|
口③④口 |⑤-⑥-|
①口口② |⑦---|
10
⑦口口⑦ |①-②-|
口口口口 |③-④-|
②⑥⑤① |⑤-⑥-|
④口口③ |--⑦-|
11
口②②口 |--①-|
口口口③ |--②-|
④口口口 |--③-|
口①①⑤ |④-⑤-|
12
⑦口口⑦ |①-②-|
口①②口 |③-④-|
口③④口 |⑤-⑥-|
口⑤⑥口 |--⑦-|
13
口②②口 |--①-|
③⑤口④ |--②-|
口口口口 |--③-|
①口口① |④-⑤-|
14
⑦口口⑦ |①-②-|
口口口口 |③-④-|
②⑥⑤① |⑤-⑥-|
④口口③ |--⑦-|
15
口②②口 |--①-|
口口口③ |--②-|
④口口口 |--③-|
口①①⑤ |④-⑤-|
16
⑦口口⑦ |①-②-|
口①②口 |③-④-|
口③④口 |⑤-⑥-|
口⑤⑥口 |--⑦-|
17
口②②口 |--①-|
口③④口 |--②-|
口③④口 |--③-|
①口口① |④---|
18
口口口口 |----|
口口口口 |----|
口口口口 |----|
口口口口 |----|
19
口口口① |--①-|
⑥口口⑦ |②-③-|
口④⑤口 |④-⑤-|
②口口③ |⑥-⑦-|
20
口①口口 |①---|
口②③口 |②-③-|
口口口口 |--④-|
口④⑤口 |⑤---|
21
②口①③ |--①-|
④口口⑤ |②-③-|
⑥口口⑦ |④-⑤-|
口口口口 |⑥-⑦-|
22
口④⑤口 |①---|
口口口口 |②-③-|
口②③口 |--④-|
口①口口 |⑤---|
23
口口口① |----|
口口①② |①---|
口口②③ |②---|
口口③口 |③---|
24
①口口口 |----|
②①口口 |①---|
③②口口 |②---|
口③口口 |③---|
25
口①①口 |----|
口②②口 |①---|
口③③口 |②---|
口口口口 |③---|
26
③②②③ |①---|
②③③② |②---|
①④④① |③---|
④①①④ |④---|
27
口口①口 |--①-|
②口口③ |②-③-|
④口口⑤ |④-⑤-|
口⑥⑦口 |⑥-⑦-|
28
口④⑤口 |①---|
口口口口 |②-③-|
口②③口 |--④-|
①口口口 |⑤---|
29
口口口① |--①-|
口②③口 |②-③-|
④口口⑤ |④-⑤-|
口⑥⑦口 |⑥-⑦-|
30
口②③口 |①---|
①口口口 |②-③-|
口④⑤口 |--④-|
口口口口 |⑤---|
31
①口口口 |----|
②①口口 |①---|
③②口口 |②---|
口③口口 |③---|
32
口口口① |----|
口口①② |①---|
口口②③ |②---|
口口③口 |③---|
33
口①①口 |----|
口②②口 |①---|
口③③口 |②---|
口口口口 |③---|
34
③②②③ |①---|
②③③② |②---|
①④④① |③---|
④①①④ |④---|
35
口口口口 |①---|
口口口口 |----|
①口口① |②-③-|
④②③⑤ |④-⑤-|
36
⑤口口⑥ |①-②-|
③⑦口④ |③-④-|
①口口② |⑤-⑥-|
口口口口 |⑦---|
37
④②③⑤ |①---|
口口①口 |----|
口口口口 |②-③-|
口口口口 |④-⑤-|
38
口口口口 |①-②-|
①⑦口② |③-④-|
③口口④ |⑤-⑥-|
⑤口口⑥ |⑦---|
39
④④②② |①---|
口口①口 |②---|
口③口口 |③---|
口口口口 |④---|
40
口口口口 |①---|
④④②② |②---|
口口口口 |③---|
口③①口 |④---|
41
①③③① |①---|
口口口口 |②---|
口②②口 |③---|
④口口④ |④---|
42
口口口口 |①---|
②口口② |----|
口口口口 |②---|
口①①口 |----|
43
口口口① |①---|
口口口口 |----|
口口口口 |----|
口口口口 |----|
44
口口口口 |①---|
口②②口 |②---|
①②②① |----|
③①①④ |③-④-|
45
⑥口口⑥ |①-②-|
①口口② |③-④-|
口③④口 |--⑤-|
口⑤⑤口 |--⑥-|
46
口口口口 |----|
口口口口 |----|
口①②口 |----|
口口口口 |①-②-|
47
①口口② |①-②-|
④口口④ |--③-|
口口口口 |--④-|
③口口③ |----|
48
口③④口 |①---|
口②②口 |②---|
①②②① |----|
口①①口 |③-④-|
49
口口口口 |①-②-|
①⑤⑤② |--③-|
口③③口 |--④-|
口④④口 |--⑤-|
50
口口口口 |----|
口口口口 |----|
口口口口 |----|
口①①口 |①---|
51
②口口② |①---|
口①①口 |----|
口口口口 |②---|
口口口口 |----|
52
口口口口 |①---|
口②②口 |②---|
①②②① |----|
③①①④ |③-④-|
53
⑤口口⑤ |①-②-|
①③③② |--③-|
口口口口 |--④-|
口④④口 |--⑤-|
54
口口口口 |----|
口口口口 |----|
口①②口 |----|
口口口口 |①-②-|
55
①口口② |①-②-|
④口口④ |--③-|
口口口口 |--④-|
③口口③ |----|
56
口③④口 |①---|
口②②口 |②---|
①②②① |----|
口①①口 |③-④-|
57
口口口口 |①-②-|
①⑤⑤② |--③-|
口③③口 |--④-|
口④④口 |--⑤-|
58
口口口口 |----|
口口口口 |----|
①口口② |----|
①口口② |①-②-|
59
②口口③ |①---|
口①①口 |--②-|
口口口口 |③---|
口口口口 |----|
60
口口口口 |①---|
口②②口 |②---|
①②②① |----|
口①①口 |----|
61
口口口口 |----|
口口口口 |----|
口口口口 |----|
口口口口 |----|
62
口①①口 |①---|
①②②① |②---|
口②②口 |----|
口口口口 |----|
63
⑥③④⑥ |①-②-|
②口口⑤ |③-④-|
口口口口 |⑤-⑥-|
⑦①①⑦ |⑦---|
64
口口口口 |----|
口口口口 |----|
口口口口 |----|
口口口口 |----|
65
口口口口 |----|
口口口② |----|
口口②① |①---|
口口①口 |②---|
66
口口口① |①---|
口口①口 |----|
口口口口 |----|
口口口口 |----|
67
①口口口 |----|
②①口口 |----|
口②口口 |①---|
口口口口 |②---|
68
口口口口 |①---|
口口口口 |----|
①口口口 |----|
口①口口 |----|
69
口口口口 |----|
②口口② |----|
①②②① |①---|
口①①口 |②---|
70
①口口① |①---|
口①①口 |----|
口口口口 |----|
口口口口 |----|
71
口口口口 |----|
口口口口 |----|
口口口口 |----|
口口口口 |----|
72
④④①① |①---②-|
②②⑤⑤ |--③---|
口口口口 |④---⑤-|
⑥⑥③③ |--⑥---|


不確定度: 0

最終更新:2013年04月29日 17:30