Mirage
Mutsuhiko Izumi

BASIC

Level: 4
BPM: 170
Notes: 263

1
口口口口 |----|
口口口口 |----|
口口口口 |----|
口口口口 |----|
2
口口口口 |①---|
①②③④ |②---|
口口口口 |③---|
口口口口 |④---|
3
口③③口 |①---|
口②②口 |--②-|
口口口口 |--③-|
口①①口 |----|
4
口口口④ |①---|
①②③口 |②---|
口口口口 |③---|
口口口口 |--④-|
5
口口口口 |----|
口①①口 |①---|
口口口口 |②---|
口②②口 |----|
6
口口口口 |①---|
①②③④ |②---|
口口口口 |③---|
口口口口 |④---|
7
口③③口 |①---|
口②②口 |--②-|
口口口口 |--③-|
口①①口 |----|
8
口口口④ |①---|
①②③口 |②---|
口口口口 |③---|
口口口口 |--④-|
9
口口口口 |----|
口①①口 |①---|
口口口口 |②---|
口②②口 |----|
10
口①口口 |①---|
口②②口 |②---|
口③③口 |③---|
口④④口 |④---|
11
①口口口 |①---|
口②②口 |②---|
③口口口 |③---|
口口口④ |④---|
12
口口口口 |--①-|
①口口② |----|
口口口口 |--②-|
口口口口 |----|
13
口口口口 |----|
口②②口 |----|
口①①口 |①---|
口口口口 |②---|
14
口口口口 |--①-|
①口口② |----|
口口口口 |--②-|
口口口口 |----|
15
口口口口 |----|
口①①口 |----|
口②②口 |①---|
口口口口 |②---|
16
①口口② |①---|
口口口口 |--②-|
口③③口 |----|
口口口口 |③---|
17
口口口口 |①---|
口①①口 |②---|
口口口口 |----|
口②②口 |----|
18
口口口口 |①---|
①②③④ |②---|
口口口口 |③---|
口口口口 |④---|
19
口①①口 |①---|
口口口口 |----|
②口口③ |②---|
口口口口 |③---|
20
口口口口 |--①-|
口②②口 |----|
口口口口 |--②-|
口①①口 |----|
21
口口口口 |----|
①口口② |----|
①口口② |①---|
口口口口 |②---|
22
①口口② |--①-|
口口口口 |----|
口口口口 |--②-|
口口口口 |----|
23
口口口口 |----|
口①①口 |----|
口②②口 |①---|
口口口口 |②---|
24
口口口口 |①---|
①②③口 |--②-|
口口口口 |----|
口口口口 |③---|
25
口②口口 |①---|
口口口口 |--②-|
口①口口 |----|
口口口口 |----|
26
口口口口 |①---|
口④①口 |②---|
口③②口 |③---|
口口口口 |④---|
27
口口口口 |①---|
口口①口 |----|
口口口口 |----|
口口口口 |----|
28
口口口口 |①---|
口口口口 |----|
①口口① |----|
②口口② |②---|
29
口口口口 |①---|
①口口① |----|
口口口口 |----|
口口口口 |----|
30
口①①口 |①---|
口口口口 |----|
口②②口 |----|
口口口口 |②---|
31
口口口口 |①---|
③口口③ |----|
②口口② |②---|
口①①口 |③---|
32
①口口① |①---|
口口口口 |----|
口②口口 |----|
口口口口 |②---|
33
口口①口 |①---|
口口口口 |----|
口口口口 |②---|
口②②口 |----|
34
①口口① |①---|
口口口口 |----|
口口口口 |----|
口口口口 |----|
35
口①①口 |①---|
口口口口 |----|
口口口口 |----|
口口口口 |----|
36
①口口① |①---|
口口口口 |----|
口口口口 |----|
口口口口 |----|
37
口④④口 |①---|
口③③口 |②---|
口②②口 |③---|
口①①口 |④---|
38
口口口口 |①---|
①②③④ |②---|
口口口口 |③---|
口口口口 |④---|
39
口口口口 |①---|
口④口口 |②---|
口③②① |③-④-|
口口口口 |----|
40
口口①口 |①---|
口口口② |②---|
口口③口 |③---|
口口口④ |④---|
41
口口口口 |----|
口口口口 |----|
口口口口 |①---|
①口口口 |----|
42
口口口口 |①---|
①②③④ |②---|
口口口口 |③---|
口口口口 |④---|
43
④③口口 |①---|
口口口口 |②---|
口口②① |③---|
口口口口 |④---|
44
口口②口 |①---|
口①口③ |②---|
口口④口 |③---|
口口口口 |④---|
45
口口口口 |①---|
口口口口 |----|
②口口口 |②---|
口①口口 |----|
46
口口①口 |①---|
口③口② |②---|
口④口口 |③---|
口口口口 |④---|
47
口口口口 |①---|
口口④口 |②---|
口口③口 |③---|
口①②口 |④---|
48
口②①口 |①---|
口③口口 |②---|
口④口口 |③---|
口口口口 |④---|
49
口口口口 |①---|
口口④口 |②---|
口口③口 |③---|
口①②口 |④---|
50
①②③④ |①---|
口口口口 |②---|
口口口口 |③---|
口口口口 |④---|
51
口口口口 |①---|
③口②① |②---|
口口口口 |--③-|
口口口口 |----|
52
口口口口 |①---|
口口口口 |②---|
④③②① |③---|
口口口口 |④---|
53
口口口口 |①---|
口①①口 |----|
口口口口 |----|
口口口口 |----|
54
口①①口 |①---|
口口口口 |----|
口口口口 |----|
口口口口 |----|
55
①口口① |①---|
口口口口 |----|
口口口口 |----|
口口口口 |----|
56
口③③口 |①---|
口①①口 |②---|
②口口② |----|
口口口口 |--③-|
57
口口口口 |----|
①口口口 |----|
口口口口 |--①-|
口口口口 |----|
58
口口口口 |①---|
口口口① |--②-|
口②②口 |----|
口口口口 |----|
59
口口口口 |①---|
①②③④ |②---|
口口口口 |③---|
口口口口 |④---|
60
②口口③ |①---|
口口口口 |②---|
口①①口 |----|
口口口口 |--③-|
61
口口口口 |----|
口口口口 |----|
①口口口 |--①-|
口口口口 |----|
62
口口口口 |①---|
口口口口 |----|
口口口① |----|
口口口口 |----|
63
②口口② |①---|
③①①③ |----|
口口口口 |②---|
口口口口 |③---|
64
②口口③ |①---|
口口口口 |②---|
①口口① |----|
口口口口 |--③-|
65
口口口口 |----|
口口口口 |----|
①口口口 |--①-|
口口口口 |----|
66
口口口口 |①---|
口②②口 |--②-|
口口口① |----|
口口口口 |----|
67
口④口口 |①---|
口③口口 |②---|
口②口口 |③---|
口①口口 |④---|
68
口口口① |①---|
②口口③ |②---|
口口口口 |----|
口口口口 |--③-|
69
口口口口 |----|
口口口口 |----|
口口口口 |--①-|
口①①口 |----|
70
口口口口 |①---|
口①①口 |----|
口口口口 |----|
口口口口 |----|
71
①口口① |①---|
口②口口 |----|
口口口口 |--②-|
口口口口 |----|
72
口口口口 |①---|
口口口口 |--②-|
口①②口
口口口口

口口口口
口口口口
口③口口 |----|
口口口口 |③---|
73
口口口口 |①---|
口①②口 |--②-|
口口口口
口口口口

口口口口
口③口口
口口口口 |----|
口口口口 |③---|
74
口口口口 |①---|
口口口口 |--②-|
口①②口
口口口口

口口口口
口口口口
口③口口 |----|
口口口口 |③---|
75
口口口口 |①---|
①①②② |--②-|
口口口口 |----|
口口口口 |----|
76
口口口口 |----|
口口口口 |----|
口口口口 |----|
口口口口 |----|
77
口口口口 |----|
口口口口 |----|
口口口口 |----|
口口口口 |----|
78
口口口口 |①---|
口②②口 |--②-|
口①①口 |----|
口口口口 |----|
79
①口口① |①---|
口口口口 |----|
口口口口 |----|
口口口口 |----|


不確定度: 0

最終更新:2013年04月29日 17:08