Mirage
Mutsuhiko Izumi

ADVANCED

Level: 7
BPM: 170
Notes: 442

1
口口口口 |----|
口口口口 |----|
口口口口 |----|
口口口口 |----|
2
口口口口 |①-②-|
①②③⑧ |③-④-|
④⑤⑥⑦ |⑤-⑥-|
口口口口 |⑦-⑧-|
3
③②②③ |①---|
口口口口 |--②-|
口口口口 |--③-|
口①①口 |----|
4
口口口口 |①-②-|
①②③⑧ |③-④-|
④⑤⑥⑦ |⑤-⑥-|
口口口口 |⑦-⑧-|
5
①口口② |--①-|
口③④口 |②-③-|
口⑤口口 |④-⑤-|
口口口口 |----|
6
口口口口 |①-②-|
①②③⑧ |③-④-|
④⑤⑥⑦ |⑤-⑥-|
口口口口 |⑦-⑧-|
7
③②②③ |①---|
口口口口 |--②-|
口口口口 |--③-|
口①①口 |----|
8
口口口口 |①-②-|
①②③⑧ |③-④-|
④⑤⑥⑦ |⑤-⑥-|
口口口口 |⑦-⑧-|
9
①口口② |--①-|
口③④口 |②-③-|
口⑤口口 |④-⑤-|
口口口口 |----|
10
③口口④ |①---|
①口口② |②---|
②口口① |③---|
④口口③ |④---|
11
口①②口 |①---|
口③④口 |②---|
口④③口 |③---|
口②①口 |④---|
12
①②③口 |--①-|
口⑥⑤④ |②-③-|
口口口口 |--④-|
口口口口 |⑤-⑥-|
13
口口口口 |----|
口②④口 |----|
口口口口 |①-②-|
口①③口 |③-④-|
14
①②③口 |--①-|
口⑥⑤④ |②-③-|
口口口口 |--④-|
口口口口 |⑤-⑥-|
15
口口口口 |----|
口口口口 |----|
①②③口 |①-②-|
口口口口 |③---|
16
口口口口 |①---|
②口口② |--②-|
③口口③ |----|
①口口① |③---|
17
口口①口 |①-②-|
口②口口 |③---|
口口③口 |----|
口口口口 |----|
18
口⑦⑦口 |①-②-|
⑥口口④ |③-④-|
①②口口 |⑤-⑥-|
⑤口口③ |⑦---|
19
口口口口 |①---|
③①①⑤ |----|
口口口口 |②-③-|
②口口④ |④-⑤-|
20
①②③口 |--①-|
口口口口 |②-③-|
口⑥⑤④ |--④-|
口口口口 |⑤-⑥-|
21
口口口口 |----|
口②④口 |----|
口口口口 |①-②-|
口①③口 |③-④-|
22
①②③口 |--①-|
口口口口 |②-③-|
口⑥⑤④ |--④-|
口口口口 |⑤-⑥-|
23
口口①口 |----|
口②口口 |----|
口口③口 |①-②-|
口口口口 |③---|
24
口口口口 |①---|
②口口② |--②-|
口③③口 |----|
①口口① |③---|
25
②口口② |①---|
口口口口 |--②-|
口口口口 |----|
①口口① |----|
26
口①②口 |①-②-|
口③④口 |③-④-|
口⑤⑥口 |⑤-⑥-|
口⑦⑧口 |⑦-⑧-|
27
口口口口 |①---|
①口口① |----|
①口口① |----|
口口口口 |----|
28
口口口口 |①---|
口口口口 |----|
口口口口 |----|
②①①② |②---|
29
①口口① |①---|
口口口口 |----|
口口口口
口口口口

口口口②
口口口③
口口口口 |----|
口口口口 |--②③|
30
②口口口 |①---|
③口口口 |----|
④口口① |----|
⑤口口口 |②③④⑤|
31
口⑤口口 |①---|
口口④口 |----|
口③①口 |②-③-|
口口②口 |④-⑤-|
32
①口口① |①---|
口口口口 |----|
口口口口 |----|
口②②口 |②---|
33
口①①口 |①---|
口口口口 |----|
口②②口 |②---|
口口口口 |----|
34
④口口口 |①---|
口①①③ |②---|
②口口口 |③---|
口口口口 |④---|
35
口口口口 |①---|
④口口口 |②---|
口①①③ |③---|
②口口口 |④---|
36
口①①口 |①---|
口口口④ |②---|
③口口口 |③---|
口口口② |④---|
37
口⑦⑧口 |①-②-|
口⑤⑥口 |③-④-|
口③④口 |⑤-⑥-|
口①②口 |⑦-⑧-|
38
口口口口 |①---|
①口口口 |②---|
①②口④ |③---|
口口③口 |④---|
39
③口口口 |①---|
③口②① |②---|
口口口口 |③---|
口口口口 |----|
40
口口口① |①---|
②口口① |②---|
②口口口
口口口口

口口④④
口口口口
口口口口 |③---|
口口③③ |④---|
41
口口口口 |----|
口口口口 |----|
①①口口 |①---|
口口口口 |----|
42
④口口② |①---|
口④②口 |②---|
③口口① |③---|
口③①口 |④---|
43
口口③④ |①---|
口口④③ |②---|
口②口口 |③---|
①口口口 |④---|
44
①①口口 |①---|
②②口口 |②---|
③③口口 |③---|
④④口口 |④---|
45
口口②② |①---|
口口口口 |----|
口口口口 |②---|
口口①① |----|
46
口口口口 |①---|
②口④④ |--②-|
口口③③ |③---|
①①口口 |④---|
47
①①口口 |①---|
②②口口 |②---|
③③口口 |③---|
④④口口 |④---|
48
①①口口 |①---|
②②口口 |②---|
③③口口 |③---|
④④口口 |④---|
49
⑤口④④ |①---|
口口③③ |②---|
口口②② |③---|
口口①① |④-⑤-|
50
口口口口 |--①-|
⑥⑤④③ |②-③-|
⑦口①② |④-⑤-|
口口口口 |⑥-⑦-|
51
口口④④ |①-②-|
口口口口 |③---|
口①②③ |--④-|
口口口口 |----|
52
①①口口 |①---|
②③口口 |②---|
③②口口 |③---|
④④口口 |④---|
53
口口口口 |①---|
口口口① |----|
口口①口 |----|
口口口口 |----|
54
④口口④ |①---|
③口口③ |②---|
②口口② |③---|
①口口① |④---|
55
口④④口 |①---|
口③③口 |②---|
口②②口 |③---|
口①①口 |④---|
56
口口口口 |①---|
②③④⑤ |②-③-|
①口口① |④-⑤-|
口⑥⑥口 |--⑥-|
57
口口①口 |----|
口口②口 |----|
口口③口 |--①-|
口口口口 |②-③-|
58
口口口口 |①---|
②②口口 |--②-|
口口口口 |----|
口口①① |----|
59
口口④④ |①---|
③③口口 |②---|
口口②② |③---|
①①口口 |④---|
60
口②口口 |①---|
口③⑥⑥ |②-③-|
①④口① |④-⑤-|
口⑤口口 |--⑥-|
61
口口口口 |----|
口口口口 |----|
口③②① |--①-|
口口口口 |②-③-|
62
口口口口 |①---|
口口②口 |----|
①③口口 |----|
口口口口 |--②③|
63
口②②口 |①---|
口③③口 |----|
口口口口 |②---|
口口①口 |③---|
64
口⑥⑥口 |①---|
口口口口 |②-③-|
②③④⑤ |④-⑤-|
①口口① |--⑥-|
65
口口①口 |----|
口口②口 |----|
口口③口 |--①-|
口口口口 |②-③-|
66
口口口口 |①---|
口口口口 |--②-|
②②口口 |----|
口口①口 |----|
67
①②口口 |①---|
①②口口 |②---|
口口④③ |③---|
口口④③ |④---|
68
口口①① |①---|
②③口口 |②-③-|
口口口口
①①口口

⑥口口⑥
口口④⑤
口口口口 |④-⑤-|
口口口口 |--⑥-|
69
口①口口 |----|
口②口口 |----|
口③口口 |--①-|
口口口口 |②-③-|
70
口口口口 |①---|
口口②口 |----|
口③口口 |----|
口①口口 |--②③|
71
④口口口 |①---|
③②口口 |----|
口口口口 |--②-|
口口①口 |③-④-|
72
⑦口①口 |①-②-|
口⑥②口 |③-④-|
口⑤③口 |⑤-⑥-|
口④口⑧ |⑦-⑧-|
73
⑦口口口 |①-②-|
④⑤⑥口 |③-④-|
口③②① |⑤-⑥-|
口口口⑧ |⑦-⑧-|
74
⑦口④口 |①-②-|
口③⑤口 |③-④-|
口②⑥口 |⑤-⑥-|
口①口⑧ |⑦-⑧-|
75
口口口④ |①-②-|
①②③④ |③-④-|
口口口④ |----|
口口口口 |----|
76
口口口口 |----|
口口口口 |----|
口口口口 |----|
口口口口 |----|
77
口口口口 |----|
口口口口 |----|
口口口口 |----|
口口口口 |----|
78
口口口口 |①-②-|
①②③④ |③-④-|
④③②①
口口口口

口口⑤口
口⑥口口
口口口口 |----|
口口口口 |--⑤⑥|
79
口口口口 |①---|
口口口口 |----|
口口①口 |----|
口口口口 |----|


不確定度: 0

最終更新:2013年04月29日 17:08