ラキラキ
Mutsuhiko Izumi & S-C-U

EXTREME

Level: 10
BPM: 165
Notes: 759

1
口口口口 |----|
口口口口 |----|
口口口口 |----|
口口口口 |----|
2
口口口口 |----|
口口口口 |----|
口口口口 |----|
口口口口 |----|
3
口口口口 |----|
口口口口 |----|
口口口口 |----|
口口口口 |----|
4
①③②口 |①--②|
口口口口 |--③-|
口口口口
①③②口

⑤口口④
口口口口
口口口口 |-④--|
⑤口口④ |⑤---|
5
口②①③ |①--②|
口口口口 |--③-|
口口口口
口②①③

④口⑤口
口⑥口口
口口口口 |-④--|
④口⑤口 |⑤-⑥-|
6
③①口② |①--②|
口口口口 |--③-|
口口口口
③①口②

口⑤④口
口口口口
口口口口 |-④--|
口⑤④口 |⑤---|
7
②口③① |①--②|
口口口口 |--③-|
口口口口
②口③①

口④口⑤
口口口口
口口口口 |-④--|
口④口⑤ |⑤---|
8
①④②口 |①--②|
口口③口 |③-④-|
口口口口
①④②口

⑦口口⑥
⑦口口⑤
口口口口 |⑤⑥--|
⑦口口⑥ |⑦---|
9
口②①④ |①--②|
口③①口 |③-④-|
口口口口
口②①④

⑥口⑦口
⑤口⑦口
口口口口 |⑤⑥--|
⑥口⑦口 |⑦---|
10
④①口② |①--②|
口①口③ |③-④-|
口口口口
④①口②

口⑨⑥口
口⑨⑤口
⑦⑧⑩⑪ |⑤⑥⑦⑧|
口⑨⑥口 |⑨-⑩⑪|
11
②④③① |①--②|
②④③① |--③-|
口⑤⑤口 |-④--|
②④③① |⑤---|
12
①⑤口① |①-②-|
口口②⑥ |③-④-|
③⑦口口 |⑤-⑥-|
口口④⑧ |⑦-⑧-|
13
①口口口 |①-②-|
口口②口 |③-④-|
③口口口
口口④口

口⑤口口
口口⑧⑥
口口口口 |⑤-⑥-|
⑦口口⑦ |⑦-⑧-|
14
①⑤⑧① |①-②-|
⑦③口口 |③-④-|
口口②⑥ |⑤-⑥-|
口口④口 |⑦-⑧-|
15
⑤口口⑤ |①-②-|
口⑦②口 |③-④-|
口③⑥④ |⑤-⑥-|
①口⑧① |⑦-⑧-|
16
⑦④②⑦ |①-②-|
⑤口口⑤ |③-④-|
③⑧⑥③ |⑤-⑥-|
①口口① |⑦-⑧-|
17
⑦口口⑦ |①-②-|
⑤④②⑤ |③-④-|
③口口③ |⑤-⑥-|
①⑧⑥① |⑦-⑧-|
18
⑦④②⑦ |①-②-|
⑤口口⑤ |③-④-|
③⑧⑥③ |⑤-⑥-|
①口口① |⑦-⑧-|
19
⑮⑦⑧⑯ |①②③④|
⑬⑤⑥⑭ |⑤⑥⑦⑧|
③⑪⑫④ |⑨⑩⑪⑫|
①⑨⑩② |⑬⑭⑮⑯|
20
口口口口 |----|
口口口口 |----|
口口口口 |----|
口口口口 |----|
21
①⑥口口 |①②③-|
②口⑤口 |④-⑤-|
③口⑦⑨ |⑥-⑦-|
⑧④口口 |⑧-⑨-|
22
口⑤②⑧ |①-②③|
口⑥③⑨ |④-⑤⑥|
口⑩口口 |⑦-⑧⑨|
口④①⑦ |⑩---|
23
①⑥口口 |①②③-|
②口⑤口 |④-⑤-|
③口⑦⑨ |⑥-⑦-|
⑧④口口 |⑧-⑨-|
24
口⑤②⑧ |①-②③|
口⑥③⑨ |④-⑤⑥|
口⑫⑪⑩ |⑦-⑧⑨|
⑬④①⑦ |⑩⑪⑫⑬|
25
①⑥口口 |①②③-|
②口⑤口 |④-⑤-|
③口⑦⑨ |⑥-⑦-|
⑧④口口 |⑧-⑨-|
26
口⑥②⑧ |①-②③|
口⑤③⑨ |④-⑤⑥|
口⑩口⑪ |⑦-⑧⑨|
口④①⑦ |⑩-⑪-|
27
①⑥口口 |①②③-|
②口⑤口 |④-⑤-|
③口⑦⑨ |⑥-⑦-|
⑧④口口 |⑧-⑨-|
28
口⑤②口 |①-②③|
口⑥③口 |④-⑤⑥|
口⑨⑨口 |⑦-⑧-|
⑧④①⑦ |⑨---|
29
①⑥口口 |①②③-|
②口⑤口 |④-⑤-|
③口⑦⑨ |⑥-⑦-|
⑧④口口 |⑧-⑨-|
30
口⑤②⑧ |①-②③|
口⑥③⑨ |④-⑤⑥|
口⑩口口 |⑦-⑧⑨|
口④①⑦ |⑩---|
31
①⑥口口 |①②③-|
②口⑤口 |④-⑤-|
③口⑦⑨ |⑥-⑦-|
⑧④口口 |⑧-⑨-|
32
口⑤②⑧ |①-②③|
口⑥③⑨ |④-⑤⑥|
口⑫⑪⑩ |⑦-⑧⑨|
⑬④①⑦ |⑩⑪⑫⑬|
33
①⑥口口 |①②③-|
②口⑤口 |④-⑤-|
③口⑦⑨ |⑥-⑦-|
⑧④口口 |⑧-⑨-|
34
口⑥②口 |①-②③|
口⑤③口 |④-⑤⑥|
④①口口
口④①口

口口口⑧
口口口⑨
口⑩⑦⑪ |⑦-⑧⑨|
⑩口⑪⑦ |⑩-⑪-|
35
①⑥①⑥ |①②③-|
②口⑤⑧ |④-⑤-|
③口⑦⑨ |⑥-⑦-|
⑧④口④ |⑧-⑨-|
36
口⑤②口 |①-②③|
口⑥③口 |④-⑤⑥|
④①口口
口④①口

⑨口口⑨
⑧口口⑦
口⑨⑨口 |⑦-⑧-|
⑧口口⑦ |⑨---|
37
口口口⑥ |①-②-|
口③④口 |③-④-|
⑦⑧⑨⑩ |⑤-⑥-|
口①②⑤ |⑦⑧⑨⑩|
38
口口口⑥ |①-②-|
口②④口 |③-④-|
⑦⑧⑨⑩ |⑤-⑥-|
口①③⑤ |⑦⑧⑨⑩|
39
②⑤⑧⑪ |①-②③|
③⑥⑨⑫ |④-⑤⑥|
口口口口 |⑦-⑧⑨|
①④⑦⑩ |⑩-⑪⑫|
40
②⑤⑧⑩ |①-②③|
③⑥⑨口 |④-⑤⑥|
口口口⑪ |⑦-⑧⑨|
①④⑦口 |⑩-⑪-|
41
口②④⑥ |①-②-|
口口口口 |③-④-|
⑦⑧⑨⑩ |⑤-⑥-|
口①③⑤ |⑦⑧⑨⑩|
42
口口口⑥ |①-②-|
口④②口 |③-④-|
⑦⑧⑨⑩ |⑤-⑥-|
口③①⑤ |⑦⑧⑨⑩|
43
②⑤⑧⑪ |①-②③|
③⑥⑨⑫ |④-⑤⑥|
口口口口 |⑦-⑧⑨|
①④⑦⑩ |⑩-⑪⑫|
44
②⑤⑦口 |①-②③|
③⑪⑩⑨ |④⑤⑥⑦|
口口口⑧ |⑧---|
①④⑥口 |---⑨⑩⑪|
45
①③②口 |①--②|
口口口口 |--③-|
口口口口
①③②口

⑤口口④
口口口口
口口口口 |-④--|
⑤口口④ |⑤---|
46
④②①③ |①--②|
口口⑥口 |--③-|
口⑤口口 |-④--|
④②①③ |--⑤⑥|
47
口②⑤⑦ |①②③-|
④口⑩口 |④-⑤⑥|
①⑨口口 |-⑦⑧-|
口③⑥⑧ |⑨-⑩-|
48
口②⑤⑦ |①②③-|
④口⑩口 |④-⑤⑥|
①⑨口口 |-⑦⑧-|
口③⑥⑧ |⑨-⑩-|
49
②④⑩口 |①-②③|
⑧口口⑦ |-④⑤-|
①⑥口口 |-⑥⑦⑧|
③⑤⑨口 |⑨-⑩-|
50
⑦⑨⑪⑬ |--①②|
⑤①③口 |③-④⑤|
④口②口 |⑥⑦⑧⑨|
⑥⑧⑩⑫ |⑩⑪⑫⑬|
51
⑦⑦⑨⑨ |①-②③|
口②④口 |-④⑤-|
口③⑤① |⑥-⑦-|
⑥⑥⑧⑧ |⑧-⑨-|
52
⑩⑫⑭⑯ |①②③④|
⑦⑤③① |⑤⑥⑦⑧|
⑧⑥④② |⑨⑩⑪⑫|
⑨⑪⑬⑮ |⑬⑭⑮⑯|
53
⑥⑥⑨⑨ |①-②③|
口②④口 |-④⑤-|
口③⑤① |⑥-⑦-|
⑦⑦⑧⑧ |⑧-⑨-|
54
④口口口 |①-②③|
③③口口 |-④⑤-|
口②口①
⑤⑤口口

口口⑧⑪
口口⑫⑦
口⑬⑨⑩ |⑥⑦⑧⑨|
口口口⑥ |⑩⑪⑫⑬|
55
口②⑤⑦ |①②③-|
④口⑩口 |④-⑤⑥|
①⑨口口 |-⑦⑧-|
口③⑥⑧ |⑨-⑩-|
56
口②⑤⑦ |①②③-|
④口⑩口 |④-⑤⑥|
①⑨口口 |-⑦⑧-|
口③⑥⑧ |⑨-⑩-|
57
②④⑩口 |①-②③|
⑧口口⑦ |-④⑤-|
①⑥口口 |-⑥⑦⑧|
③⑤⑨口 |⑨-⑩-|
58
口口口② |①②③④|
⑧⑥④口 |⑤⑥⑦⑧|
⑤⑦③口
口口口①

⑩⑫⑭⑯
口口口口
口口口口 |⑨⑩⑪⑫|
⑨⑪⑬⑮ |⑬⑭⑮⑯|
59
口口口口 |①-②③|
口②④口 |-④⑤-|
口③⑤①
口口口口

⑨口⑧⑩
口口口⑦
⑨口口⑩ |⑥⑦⑧-|
⑥口口口 |⑨-⑩-|
60
⑤⑦⑨⑪ |--①②|
口①②口 |③---|
口口③口 |④⑤⑥⑦|
④⑥⑧⑩ |⑧⑨⑩⑪|
61
⑥⑥⑧⑧ |①-②③|
口④②口 |-④⑤-|
①⑤③口 |⑥-⑦-|
⑦⑦⑨⑨ |⑧-⑨-|
62
口口口口 |①-②③|
③③⑤⑤ |-④⑤-|
口②④①
口口口口

口⑦⑨⑪
口⑬口口
口口口⑫ |⑥⑦⑧⑨|
口⑥⑧⑩ |⑩⑪⑫⑬|
63
②④⑧⑩ |①-②③|
⑥口口⑦ |-④⑤-|
⑥①口⑦ |⑥-⑦-|
③⑤⑨⑪ |⑧⑨⑩⑪|
64
②④⑨⑪ |①-②③|
⑥口口⑦ |-④⑤-|
⑥①口⑦ |⑥-⑦-|
③⑤⑧⑩ |⑧⑨⑩⑪|
65
③⑤⑨⑪ |①-②③|
⑥口口⑦ |-④⑤-|
⑥①口⑦ |⑥-⑦-|
②④⑧⑩ |⑧⑨⑩⑪|
66
③⑤口口 |①-②③|
口口口口 |-④⑤-|
口①口口
②④口口

口口口口
⑧⑥口⑨
⑥⑧⑨⑦ |⑥-⑦-|
口口⑦口 |⑧-⑨-|
67
①④②⑤ |①--②|
⑥③口口 |--③-|
③⑥口口 |④--⑤|
①④⑤② |--⑥-|
68
口口①口 |①---|
口④口② |②-③④|
③口口②
口口口①

⑥⑧⑩⑫
口口口口
口口口口 |⑤⑥⑦⑧|
⑤⑦⑨⑪ |⑨⑩⑪⑫|
69
⑥⑧⑩⑫ |①-②-|
口口②④ |③-④-|
③①口口 |⑤⑥⑦⑧|
⑤⑦⑨⑪ |⑨⑩⑪⑫|
70
口口口口 |①---|
口①口口 |----|
口①口口 |----|
口口口口 |----|


不確定度: 0

最終更新:2013年10月01日 21:09