お米の美味しい炊き方、 そしてお米を食べることによるその効果。
大日本鉄倶楽部【あさき&96】

EXTREME

Level: 10
BPM: 190
Notes: 831

1
口口口口 |----|
口①①口 |-------①|
口①①口 |----|
口口口口 |----|
2
④②⑦⑤ |①-②-|
口口口③ |③---|
①口口③ |④-⑤-|
⑥口④⑥ |⑥-⑦-|
3
④②⑦⑤ |①-②-|
口口口③ |③---|
①口口③ |④-⑤-|
⑥口④⑥ |⑥-⑦-|
4
④②⑦⑤ |①-②-|
口口口③ |③---|
①口口③ |④-⑤-|
⑥口④⑥ |⑥-⑦-|
5
口口口口 |①-②-|
口①③⑤ |③-④-|
②④⑥口 |⑤-⑥-|
⑦⑦口口 |⑦---|
6
③②⑥④ |①---|
口①口口 |②---|
①口口② |③-④-|
⑤口③⑤ |⑤-⑥-|
7
④②⑦⑤ |①-②-|
口口口③ |③---|
①口口③ |④-⑤-|
⑥口④⑥ |⑥-⑦-|
8
④②⑦⑤ |①-②-|
口口口③ |③---|
①口口③ |④-⑤-|
⑥口④⑥ |⑥-⑦-|
9
③①⑥⑤ |①-②-|
①③⑤口 |--③-|
②口口④ |④-⑤-|
⑥②④口 |--⑥-|
10
口②口⑤ |①-②-|
①口口② |③-④-|
⑤④③④ |--⑤-|
口③口① |----|
11
⑤⑤⑩⑨ |①②③④|
口口②① |⑤-⑥⑦|
口口⑥⑪ |⑧-⑨-|
③⑦④⑧ |⑩-⑪-|
12
⑤⑤⑩⑨ |①②③④|
口⑪②① |⑤-⑥⑦|
口口⑥口 |⑧-⑨-|
③⑦④⑧ |⑩-⑪-|
13
⑤⑤⑩⑨ |①②③④|
口口②① |⑤-⑥⑦|
口口⑥⑪ |⑧-⑨-|
③⑦④⑧ |⑩-⑪-|
14
口⑤口⑩ |①②③④|
口⑥④③ |⑤⑥⑦⑧|
②⑨⑦⑩ |⑨---|
①⑨口⑧ |⑩---|
15
⑤⑤⑩⑨ |①②③④|
口口②① |⑤-⑥⑦|
口口⑥⑪ |⑧-⑨-|
③⑦④⑧ |⑩-⑪-|
16
⑤⑤⑩⑨ |①②③④|
口口②① |⑤-⑥⑦|
口口⑥⑪ |⑧-⑨-|
③⑦④⑧ |⑩-⑪-|
17
⑤⑤⑩⑨ |①②③④|
口口②① |⑤-⑥⑦|
口口⑥⑪ |⑧-⑨-|
③⑦④⑧ |⑩-⑪-|
18
②④⑥口 |①-②-|
口⑥⑥口 |③-④-|
口⑥⑥口 |⑤---|
①⑤③口 |⑥---|
19
口口口④ |①-②-|
②⑥口口 |--③-|
口口口③ |④---|
①⑤口口 |⑤-⑥-|
20
口①口③ |--①-|
口口口口 |--②-|
口④④② |③---|
口口口口 |④---|
21
口口口④ |①-②-|
②⑥口口 |--③-|
口口口③ |④---|
①⑤口口 |⑤-⑥-|
22
口①口③ |--①-|
口口口口 |--②-|
口④④② |③---|
口口口口 |④---|
23
口口③口 |①-②-|
口口③② |③---|
口口口口
口口口①

口口口口
口④口口
⑤⑥口⑦ |④-⑤-|
口口口⑦ |⑥-⑦-|
24
④口②口 |--①-|
口④口口 |②-③-|
⑤口①口 |④---|
③⑤口口 |⑤---|
25
口口③口 |①-②-|
口口③② |③-④-|
口口口口
口口④①

口口口口
口⑤口口
⑥⑦口⑧ |⑤-⑥-|
口口口⑧ |⑦-⑧-|
26
④口②⑤ |--①-|
口④口口 |②-③-|
⑤⑤①口 |④---|
③⑤口口 |⑤---|
27
口口③口 |①-②-|
口口③② |③-④-|
口口口口
口口④①

口口口口
口⑤口口
⑥⑦口⑧ |⑤-⑥-|
口口口⑧ |⑦-⑧-|
28
④口②口 |--①-|
口⑤口口 |②-③-|
⑥口①口 |④-⑤-|
③⑦口口 |⑥-⑦-|
29
⑦⑦③口 |①-②-|
口④③② |③---|
⑤⑥口口 |④-⑤-|
口口口① |⑥-⑦-|
30
口口②② |--①-|
口口口口 |--②-|
口口口口 |--③-|
③③①① |----|
31
④口③⑧ |①-②-|
②⑤⑧① |③-④-|
⑥⑧③⑦ |⑤-⑥-|
⑧口口① |⑦-⑧-|
32
④口②口 |--①-|
口⑤口口 |②-③-|
⑥口①口 |④-⑤-|
口⑦③口 |⑥-⑦-|
33
⑧口③口 |①-②-|
⑧⑤③② |③-④-|
⑧⑦口⑥ |⑤-⑥-|
⑧口④① |⑦-⑧-|
34
口口②② |--①-|
口③③② |--②-|
③口②③ |----|
口①②② |③---|
35
口③④口 |①-②-|
②口口⑤ |③-④-|
口口口口 |⑤-⑥-|
①⑧⑦⑥ |⑦-⑧-|
36
口④口③ |--①-|
④②③口 |②---|
口③①④ |③---|
③口④口 |④---|
37
②口①② |①---|
口②②① |----|
①③③口 |②---|
③①口③ |③---|
38
口①①口 |--①-|
①口口① |--②-|
①口口① |③---|
④③②④ |④---|
39
③②①③ |①---|
②①②① |②---|
口②①口 |③---|
④口口④ |④---|
40
口③③口 |①---|
②口口① |②---|
④口口④ |③---|
口②①口 |④---|
41
⑥口口③ |①-②-|
口⑤②口 |③---|
口口口口 |④-⑤-|
④口口① |⑥---|
42
口④①口 |①-②-|
口口口口 |③---|
口⑤②口 |④-⑤-|
⑥口口③ |⑥---|
43
⑥⑦①⑨ |①---|
②③口⑧ |②③④⑤|
口口⑬⑤ |⑥⑦⑧⑨|
⑩⑪⑫④ |⑩⑪⑫⑬|
44
⑨⑩④⑫ |①②③④|
⑤⑥③⑪ |⑤⑥⑦⑧|
①②⑯⑧ |⑨⑩⑪⑫|
⑬⑭⑮⑦ |⑬⑭⑮⑯|
45
口口口口 |①---|
口口口口 |--②-|
①口口② |----|
口③④口 |③-④-|
46
口①②口 |①---|
②口口① |②---|
口口口口
口口口口

口口口⑤
口③④⑤
④口口③ |③---|
口口口口 |④-⑤-|
47
①口口口 |--①-|
①口口口 |----|
口口口口 |②---|
③③②② |③---|
48
口口口③ |①---|
口口②② |②---|
④口①① |③---|
口口口口 |--④-|
49
⑥④⑥口 |--①-|
②③口口 |②-③-|
口①口口 |④---|
口⑤口⑤ |⑤-⑥-|
50
⑥口口④ |--①-|
①口口口 |②-③-|
②⑤口口 |④-⑤-|
③口口⑦ |⑥-⑦-|
51
⑦④①⑦ |①-②-|
④②⑤① |③-④-|
③⑤②⑥ |⑤-⑥-|
⑧③⑥口 |⑦-⑧-|
52
口口口口 |--①-|
口④口口 |②-③-|
②③口口 |④---|
口①⑤口 |--⑤-|
53
口⑤口口 |--①-|
⑤口口④ |②-③-|
口⑥②③ |④---|
⑥口口① |⑤-⑥-|
54
口口口口 |----|
口①①口 |----|
口口口口 |--①-|
口口口口 |----|
55
①③③② |①---|
口③③口 |--②-|
②②①① |----|
②②①① |③---|
56
口口口口 |①---|
口口口③ |②---|
口口②② |③---|
④口①① |--④-|
57
口⑤⑤口 |--①-|
口④口口 |②-③-|
②③口口 |④---|
口①口口 |--⑤-|
58
口口口口 |--①-|
②⑦⑦① |②-③-|
④口口③ |④-⑤-|
口⑥⑤口 |⑥-⑦-|
59
口口②口 |①---|
口口口② |--②-|
口①①口
②口口口

口③口口
③口口口
口口④口 |--③-|
口口口③ |--④-|
60
口口口④ |--①-|
口口②③ |②-③-|
⑤口口① |④---|
口口口口 |--⑤-|
61
口④⑤口 |--①-|
②③口⑤ |②-③-|
口①⑥口 |④---|
口口口⑥ |⑤-⑥-|
62
口口口口 |----|
①②②① |----|
①②②① |--①-|
口口口口 |--②-|
63
④①①② |①---|
口口口口 |②---|
口口口口 |③---|
③①①⑤ |④-⑤-|
64
⑥④口口 |①-②-|
①⑤口口 |③-④-|
③⑦口口 |⑤-⑥-|
⑧②口口 |⑦-⑧-|
65
口口②⑧ |①-②-|
口口⑦③ |③-④-|
口口⑤① |⑤-⑥-|
口口④⑥ |⑦-⑧-|
66
⑥④②⑧ |①-②-|
①⑤⑦③ |③-④-|
③⑦⑤① |⑤-⑥-|
⑧②④⑥ |⑦-⑧-|
67
口③②口 |①---|
①④④口 |--②-|
口口口① |③---|
口②③口 |④---|
68
④⑦④⑥ |①-②-|
口口⑧② |③-④-|
口口③⑤ |⑤-⑥-|
①口⑦① |⑦-⑧-|
69
口⑥口⑦ |①-②-|
④口⑦② |③-④-|
口⑤口口 |⑤-⑥-|
③②口① |⑦---|
70
⑧⑯①⑬ |①②③④|
⑫④⑮⑨ |⑤⑥⑦⑧|
②⑩⑦⑤ |⑨⑩⑪⑫|
⑥⑭③⑪ |⑬⑭⑮⑯|
71
⑧口③口 |①②③④|
口④口⑨ |⑤⑥⑦⑧|
②口⑦⑤ |⑨---|
⑥口①口 |----|
72
口口口口 |①---|
口口口口 |②---|
口②②口
口①①口

口口口口
口口③口
口口口口 |③---|
口④④口 |--④-|
73
③④④③ |--①-|
口口②口 |----|
口①①口 |②-③-|
口口口口 |--④-|
74
口口口口 |--①-|
口口口① |②-③-|
②⑤④口 |④-⑤-|
口⑦⑥③ |⑥-⑦-|
75
①①①① |①---|
①①①① |----|
口口口② |----|
口口②口 |--②-|
76
③②口③ |--①-|
②口①口 |②-③-|
⑤①口口 |④---|
④⑤口④ |--⑤-|
77
③⑤②③ |--①-|
口①⑥② |②-③-|
口⑤①口 |④---|
④口⑥④ |⑤-⑥-|
78
口口口口 |----|
口口口口 |----|
①口口① |--①-|
①口口① |----|
79
①①①① |①---|
口口口口 |----|
口口口口 |②---|
②②②② |----|
80
⑭②⑪① |①②③④|
⑩④⑮③ |⑤⑥⑦⑧|
⑯⑥⑬⑤ |⑨⑩⑪⑫|
⑫⑧⑨⑦ |⑬⑭⑮⑯|
81
⑫②⑩④ |①②③④|
⑭③⑬① |⑤⑥⑦⑧|
⑯⑦⑮⑤ |⑨⑩⑪⑫|
⑪⑥⑨⑧ |⑬⑭⑮⑯|
82
⑭④⑬③ |①②③④|
⑫②⑪① |⑤⑥⑦⑧|
⑯⑥⑮⑤ |⑨⑩⑪⑫|
⑩⑧⑨⑦ |⑬⑭⑮⑯|
83
口②口① |①②③④|
⑪④⑨③ |⑤⑥⑦⑧|
口⑥口⑤ |⑨-⑩-|
⑩⑧口⑦ |--⑪-|
84
口②①口 |--①②|
⑭⑫⑩⑧ |③④⑤⑥|
④⑥⑤③ |⑦⑧⑨⑩|
⑬⑪⑨⑦ |⑪⑫⑬⑭|
85
④③②① |①②③④|
⑭⑯⑩⑫ |⑤⑥⑦⑧|
⑧⑦⑥⑤ |⑨⑩⑪⑫|
⑮⑬⑪⑨ |⑬⑭⑮⑯|
86
④②①③ |①②③④|
⑯⑮⑫⑪ |⑤⑥⑦⑧|
⑧⑥⑤⑦ |⑨⑩⑪⑫|
⑭⑬⑩⑨ |⑬⑭⑮⑯|
87
②口口① |①---|
口口口口 |----|
口口口口 |②---|
口口口口 |----|
88
口口口口 |①---|
口口③口 |--②-|
口②②口 |----|
口①①口 |③---|
89
口口口口 |----|
口口口口 |----|
口口口口 |----|
口口口口 |----|
90
口口口口 |----|
口口口口 |----|
口口口口 |----|
口口口口 |----|
91
口口口口 |----|
口口口口 |①---|
口①口口 |----|
口①口口 |----|
92
口口口口 |----|
口口①口 |①---|
口口①口 |----|
口口①口 |----|


不確定度: 0

最終更新:2013年10月01日 21:21