Elemental Creation
dj TAKA meets DJ YOSHITAKA

EXTREME

Level: 10
BPM: 212
Notes: 1023

1
口口口口 |----|
口口口口 |----|
口口口口 |----|
口口口口 |----|
2
口口⑥口 |①-②-|
口③③④ |--③-|
①⑤⑤① |④-⑤-|
②⑦⑦② |⑥-⑦-|
3
①⑤口① |①-②-|
④⑦口⑥ |③-④-|
③口口⑧ |⑤-⑥-|
②口口口 |⑦-⑧-|
4
口口③⑥ |----|
④⑤口④ |①-②-|
⑥①①口 |③-④-|
口②②口 |⑤-⑥-|
5
①口⑤口 |①-②-|
口口⑥⑦ |③-④-|
口④③① |⑤-⑥-|
口⑧口② |⑦-⑧-|
6
⑤①口④ |①-②-|
①口⑥口 |③-④-|
口⑦⑧① |⑤-⑥-|
③口①② |⑦-⑧-|
7
⑤口①④ |①-②-|
口③⑥① |③-④-|
①⑧口口 |⑤-⑥-|
⑦①口② |⑦-⑧-|
8
②①③③ |①---|
口②口① |----|
①口②口 |②---|
③③①② |③---|
9
⑭④口⑪ |①-②③|
②⑩⑦⑤ |④-⑤⑥|
⑧⑥⑨① |⑦⑧⑨⑩|
口⑫③⑬ |⑪⑫⑬⑭|
10
⑧⑤①⑦ |①-②-|
②口口④ |③-④-|
口⑥⑦① |⑤-⑥-|
③口④口 |⑦-⑧-|
11
口⑤⑤口 |①-②-|
口③②口 |③-④-|
①口口口 |⑤---|
⑥④⑥② |⑥---|
12
②口⑦⑦ |①-②-|
⑧⑤口① |③-④-|
③口①④ |⑤-⑥-|
口⑥口④ |⑦-⑧-|
13
⑪③⑧口 |①-②-|
口⑨②⑤ |③-④-|
口④口⑩ |⑤-⑥⑦|
①⑥②⑦ |⑧⑨⑩⑪|
14
⑩⑤口① |①-②-|
口口④⑨ |③-④-|
⑧口③口 |⑤-⑥-|
⑥口②⑦ |⑦⑧⑨⑩|
15
口⑧⑥① |①-②-|
口④口口 |③-④-|
⑦③口⑤ |⑤-⑥-|
口②口口 |⑦-⑧-|
16
⑩口⑨⑤ |①-②③|
⑭⑥⑬① |④-⑤⑥|
⑫⑧口⑦ |⑦⑧⑨⑩|
②③④⑪ |⑪⑫⑬⑭|
17
④口口③ |①-②-|
口口口② |--③-|
⑤口①口 |--④-|
②④③⑤ |⑤---|
18
⑧⑤①⑦ |①-②-|
②口口④ |③-④-|
口⑥⑦① |⑤-⑥-|
③口④口 |⑦-⑧-|
19
口⑤⑤口 |①-②-|
口③②口 |③-④-|
①口口口 |⑤---|
⑥④⑥② |⑥---|
20
②口⑦⑦ |①-②-|
⑧⑤口① |③-④-|
③口①④ |⑤-⑥-|
口⑥口④ |⑦-⑧-|
21
⑪③⑧口 |①-②-|
口⑨②⑤ |③-④-|
口④口⑩ |⑤-⑥⑦|
①⑥②⑦ |⑧⑨⑩⑪|
22
⑩⑤口① |①-②-|
口口④⑨ |③-④-|
⑧口③口 |⑤-⑥-|
⑥口②⑦ |⑦⑧⑨⑩|
23
口⑧⑥① |①-②-|
口④口口 |③-④-|
⑦③口⑤ |⑤-⑥-|
口②口口 |⑦-⑧-|
24
⑩口⑨⑤ |①-②③|
⑭⑥⑬① |④-⑤⑥|
⑫⑧口⑦ |⑦⑧⑨⑩|
②③④⑪ |⑪⑫⑬⑭|
25
口⑤口口 |①-②③|
口口口① |④-⑤⑥|
口口口⑥
②③④口

⑪口⑧⑩
口⑨口⑭
⑬⑦⑫口 |⑦⑧⑨⑩|
口口口口 |⑪⑫⑬⑭|
26
⑦④口口 |①-②-|
①口①口 |③-④-|
口⑤⑥④ |--⑤-|
③②③② |⑥-⑦-|
27
口口口① |①-②③|
⑦口⑩④ |④-⑤⑥|
③⑨⑫⑥ |⑦-⑧⑨|
⑤⑪⑧② |⑩-⑪⑫|
28
②口口② |①---|
口①口口 |--②-|
口口口口 |③---|
③口口③ |----|
29
⑧⑭①⑨ |①②③④|
⑩②⑮⑤ |⑤⑥⑦⑧|
⑥⑯③⑪ |⑨⑩⑪⑫|
⑫④⑦⑬ |⑬⑭⑮⑯|
30
⑥口①⑦ |①-②-|
口②口③ |③-④-|
口口口口 |--⑤-|
口④⑤口 |⑥-⑦-|
31
口①口口 |①-②③|
⑦口⑩④ |④-⑤⑥|
③⑨⑫⑥ |⑦-⑧⑨|
⑤⑪⑧② |⑩-⑪⑫|
32
③口口③ |①---|
口①口口 |--②-|
②口口② |③---|
口口口口 |----|
33
⑤②①④ |①-②-|
口③③口 |--③-|
口口口口 |--④-|
②⑤①④ |⑤---|
34
⑧⑤①⑦ |①-②-|
②口口④ |③-④-|
口⑥⑦① |⑤-⑥-|
③口④口 |⑦-⑧-|
35
口⑤⑤口 |①-②-|
口③②口 |③-④-|
①口口口 |⑤---|
⑥④⑥② |⑥---|
36
②口⑦⑦ |①-②-|
⑧⑤口① |③-④-|
③口①④ |⑤-⑥-|
口⑥口④ |⑦-⑧-|
37
⑪③⑧口 |①-②-|
口⑨②⑤ |③-④-|
口④口⑩ |⑤-⑥⑦|
①⑥②⑦ |⑧⑨⑩⑪|
38
⑩⑤口① |①-②-|
口口④⑨ |③-④-|
⑧口③口 |⑤-⑥-|
⑥口②⑦ |⑦⑧⑨⑩|
39
口⑧⑥① |①-②-|
口④口口 |③-④-|
⑦③口⑤ |⑤-⑥-|
口②口口 |⑦-⑧-|
40
⑩口⑨⑤ |①-②③|
⑭⑥⑬① |④-⑤⑥|
⑫⑧口⑦ |⑦⑧⑨⑩|
②③④⑪ |⑪⑫⑬⑭|
41
④口口③ |①-②-|
口口口② |--③-|
⑤口①口 |--④-|
②④③⑤ |⑤---|
42
⑧⑤①⑦ |①-②-|
②口口④ |③-④-|
口⑥⑦① |⑤-⑥-|
③口④口 |⑦-⑧-|
43
口⑤⑤口 |①-②-|
口③②口 |③-④-|
①口口口 |⑤---|
⑥④⑥② |⑥---|
44
②口⑦⑦ |①-②-|
⑧⑤口① |③-④-|
③口①④ |⑤-⑥-|
口⑥口④ |⑦-⑧-|
45
⑪③⑧口 |①-②-|
口⑨②⑤ |③-④-|
口④口⑩ |⑤-⑥⑦|
①⑥②⑦ |⑧⑨⑩⑪|
46
⑩⑤口① |①-②-|
口口④⑨ |③-④-|
⑧口③口 |⑤-⑥-|
⑥口②⑦ |⑦⑧⑨⑩|
47
口⑧⑥① |①-②-|
口④口口 |③-④-|
⑦③口⑤ |⑤-⑥-|
口②口口 |⑦-⑧-|
48
⑩口⑨⑤ |①-②③|
⑭⑥⑬① |④-⑤⑥|
⑫⑧口⑦ |⑦⑧⑨⑩|
②③④⑪ |⑪⑫⑬⑭|
49
口⑤口口 |①-②③|
口口口① |④-⑤⑥|
口口口⑥
②③④口

⑪口⑧⑩
⑬⑨口⑭
口⑦口口 |⑦⑧⑨⑩|
口口口⑫ |⑪⑫⑬⑭|
50
口⑥口⑤ |①---|
⑦口口口 |--②③|
①④口口 |④-⑤-|
口②③口 |⑥-⑦-|
51
⑦口口⑧ |①-②-|
口⑤④口 |③-④⑤|
③口⑥② |⑥-⑦-|
①⑨口① |⑧-⑨-|
52
⑦口②⑧ |①-②-|
①⑤④口 |③-④⑤|
口口⑥口 |⑥-⑦-|
③⑨口口 |⑧-⑨-|
53
⑦③口⑧ |①-②-|
口口口② |③-④⑤|
①⑤⑥口 |⑥-⑦-|
⑨口④口 |⑧-⑨-|
54
口口口口 |①---|
口口口口 |----|
口口口口 |----|
口口口① |----|
55
口口口口 |----|
口口口口 |----|
口口口口 |----|
口口口口 |----|
56
口口口口 |----|
口口口口 |----|
口口口口 |----|
口口口口 |----|
57
口口口口 |----|
口口口口 |----|
口口口口 |----|
口口口口 |----|
58
①口口① |①---|
口口口口 |----|
口①①口 |----|
口口口口 |----|
59
口口口口 |①---|
口口口口 |----|
口口口口 |----|
①口口① |----|
60
①口口口 |①---|
口口①口 |----|
口①口口 |----|
口口口① |----|
61
口口口① |①---|
口①口口 |----|
口口①口 |----|
①口口口 |----|
62
口①①口 |①---|
口口口口 |----|
口口口口 |----|
口①①口 |----|
63
口口口口 |①---|
口口口口 |----|
口口口口 |----|
①口口① |----|
64
①口口① |①---|
口口口口 |----|
口口口口 |----|
口口口口 |----|
65
口口口口 |①---|
口①①口 |----|
口口口口 |----|
口口口口 |----|
66
②口口⑤ |①---|
口口口口 |②---|
口④③口 |③-④-|
口口口① |--⑤-|
67
口口⑤口 |--①-|
②④口口 |--②-|
口口口口 |--③-|
①口③口 |④-⑤-|
68
④口口① |----|
口口口口 |①---|
口②③口 |②-③-|
口口口口 |--④-|
69
口口口口 |--①-|
口②⑤口 |--②-|
口④口口 |--③-|
①口③口 |④-⑤-|
70
①口口④ |----|
口口口口 |①---|
②口口③ |②-③-|
口口口口 |--④-|
71
口④口口 |--①-|
②口口口 |--②-|
口口口口 |--③-|
③①口口 |--④-|
72
口口口④ |----|
口口口① |①---|
口②③口 |②-③-|
口口口口 |--④-|
73
口口③口 |--①-|
口口口口 |--②-|
口口口口 |--③-|
口口①② |----|
74
①①⑩⑩ |①-②-|
③④⑤⑥ |③④⑤⑥|
②②口口 |⑦⑧⑨-|
⑦⑧⑨口 |⑩---|
75
①①⑩⑩ |①-②-|
③④⑤⑥ |③④⑤⑥|
②②口口 |⑦⑧⑨-|
⑦⑧⑨口 |⑩---|
76
①①⑩⑩ |①-②-|
③④⑤⑥ |③④⑤⑥|
②②口口 |⑦⑧⑨-|
⑦⑧⑨口 |⑩---|
77
①①⑪口 |①-②-|
③④⑪口 |③④⑤⑥|
②②⑤⑥ |⑦⑧⑨⑩|
⑩⑨⑧⑦ |⑪---|
78
①①⑨③ |①-②-|
⑦⑦⑩④ |③④⑤⑥|
②②⑪⑤ |⑦-⑧-|
⑧⑧⑫⑥ |⑨⑩⑪⑫|
79
①①⑨③ |①-②-|
⑦⑦⑩④ |③④⑤⑥|
②②⑪⑤ |⑦-⑧-|
⑧⑧⑫⑥ |⑨⑩⑪⑫|
80
①口口口 |①---|
口口口口 |----|
口口口口 |----|
口口口口 |----|
81
①口口② |①-②-|
④口③⑤ |--③-|
⑤③口④ |--④-|
①口口② |--⑤-|
82
③口①④ |①-②-|
口②⑤口 |--③-|
口⑤②口 |--④-|
④①口③ |--⑤-|
83
②①③③ |①---|
口②口① |----|
①口②口 |②---|
③③①② |③---|
84
⑭④口⑪ |①-②③|
②⑩⑦⑤ |④-⑤⑥|
⑧⑥⑨① |⑦⑧⑨⑩|
口⑫③⑬ |⑪⑫⑬⑭|
85
⑧⑤①⑦ |①-②-|
②口口④ |③-④-|
口⑥⑦① |⑤-⑥-|
③口④口 |⑦-⑧-|
86
口口⑦⑦ |①-②-|
⑥③②口 |③-④-|
①口口口 |⑤-⑥-|
口④⑤② |⑦---|
87
②口⑦⑦ |①-②-|
⑧⑤口① |③-④-|
③口①④ |⑤-⑥-|
口⑥口④ |⑦-⑧-|
88
⑪③⑩⑧ |①-②-|
口⑦②⑤ |③-④-|
口④口口 |⑤-⑥⑦|
①⑨②⑥ |⑧⑨⑩⑪|
89
⑭⑧⑬⑪ |①-②-|
②口③⑦ |③④⑤⑥|
⑥④⑤① |⑦⑧⑨⑩|
⑩⑫口⑨ |⑪⑫⑬⑭|
90
⑭⑫⑬⑪ |①-②③|
②③④口 |④-⑤⑥|
⑧⑥⑤⑦ |⑦⑧⑨⑩|
⑩口①⑨ |⑪⑫⑬⑭|
91
⑯⑮⑭⑬ |①②③④|
④⑥⑤③ |⑤⑥⑦⑧|
⑩⑧⑦⑨ |⑨⑩⑪⑫|
⑫②①⑪ |⑬⑭⑮⑯|
92
口口口口 |①-②-|
②③④② |--③-|
⑤③④口 |--④-|
口①①⑤ |⑤---|
93
⑧⑤①⑦ |①-②-|
②口口④ |③-④-|
口⑥⑦① |⑤-⑥-|
③口④口 |⑦-⑧-|
94
口口⑦口 |①-②-|
⑥③②口 |③-④-|
①口口口 |⑤-⑥-|
口④⑤② |⑦---|
95
②口⑦⑦ |①-②-|
⑧⑤口① |③-④-|
③口①④ |⑤-⑥-|
口⑥口④ |⑦-⑧-|
96
⑪③⑩⑧ |①-②-|
口⑦②⑤ |③-④-|
口④口口 |⑤-⑥⑦|
①⑨②⑥ |⑧⑨⑩⑪|
97
⑭⑧⑬⑪ |①-②-|
②口③⑦ |③④⑤⑥|
⑥④⑤① |⑦⑧⑨⑩|
⑩⑫口⑨ |⑪⑫⑬⑭|
98
⑭⑫⑬⑪ |①-②③|
②③④口 |④-⑤⑥|
⑧⑥⑤⑦ |⑦⑧⑨⑩|
⑩口①⑨ |⑪⑫⑬⑭|
99
⑯⑮⑭⑬ |①②③④|
④⑥⑤③ |⑤⑥⑦⑧|
⑩⑧⑦⑨ |⑨⑩⑪⑫|
⑫②①⑪ |⑬⑭⑮⑯|
100
口口口口 |①-②③|
③口④② |④-⑤⑥|
口口⑥口
口⑤①口

口⑬口⑫
口⑦口口
⑨⑪口⑧ |⑦⑧⑨⑩|
口口⑭⑩ |⑪⑫⑬⑭|
101
①口口⑦ |①-②-|
③⑥口② |③-④-|
口口④口 |--⑤-|
口⑤口口 |⑥-⑦-|
102
①口口口 |①-②③|
⑤⑪⑧② |④-⑤⑥|
③⑨⑫⑥ |⑦-⑧⑨|
⑦口⑩④ |⑩-⑪⑫|
103
口口口③ |①---|
口口口口 |--②-|
②口口口 |③---|
口①口口 |----|
104
①⑤⑭⑫ |①②③④|
⑨⑬⑥② |⑤⑥⑦⑧|
⑦③⑩⑧ |⑨⑩⑪⑫|
⑮⑪④⑯ |⑬⑭⑮⑯|
105
①⑦口口 |①-②-|
口口口② |③-④-|
口③⑥口 |--⑤-|
口⑤④口 |⑥-⑦-|
106
口口口① |①-②③|
②⑧⑪⑤ |④-⑤⑥|
⑥⑫⑨③ |⑦-⑧⑨|
④⑩口⑦ |⑩-⑪⑫|
107
口②②口 |①---|
口口口口 |--②-|
③口口③ |③---|
口口①口 |----|
108
①口口② |①-②-|
⑤③③④ |--③-|
⑤口口④ |--④-|
口②①口 |⑤---|
109
④①①④ |①-②-|
⑤⑥⑦⑧ |--③-|
口②②口 |--④-|
③口口③ |⑤⑥⑦⑧|
110
口①①口 |①---|
口口口口 |----|
口口口口 |----|
口①①口 |----|


不確定度: 0

最終更新:2013年10月01日 21:03