STULTI
MAX MAXIMIZER VS DJ TOTTO

EXTREME

Level: 10
BPM: 90-182
Notes: 718

BPM: 182
1
口口口口 |----|
口口口口 |----|
口口口口 |----|
口口口口 |----|
2
口口口口 |①---|
口①①口 |----|
口①①口 |----|
口口口口 |----|
3
口口⑤口 |----|
②⑥口① |----|
④口口⑦ |①②③④|
口⑧③口 |⑤⑥⑦⑧|
4
②⑥口⑤ |①②③④|
口口①⑦ |⑤⑥⑦⑧|
口④口口 |----|
⑧口口③ |----|

BPM: 90
5
口口口口 |①---|
口①①口 |----|
口①①口 |----|
口口口口 |----|
6
口口①口 |①---|
口口口① |----|
口口口口 |----|
口口口口 |----|
7
口口口① |①②-③|
④⑤⑥口 |④⑤-⑥|
口口口①
口③②口

口口口⑦
⑩⑪⑫口
口口口⑦ |⑦-⑧⑨|
口⑨⑧口 |⑩⑪-⑫|
8
口口口① |①-②③|
④⑤⑥口 |④⑤-⑥|
口口②①
口③②口

口口口⑦
口口口口
口⑨⑧⑦ |⑦-⑧-|
⑨⑨⑧⑧ |⑨---|
9
①①①① |①---|
①①①① |----|
口口口口 |----|
口口口口 |----|

BPM: 182
10
②口口③ |①---|
③④①口 |②---|
口②③④ |③---|
④①②① |④---|
11
②①③口 |①---|
③④②① |②---|
②口③④ |③---|
口④口① |④---|
12
口②口③ |①---|
③④②① |②---|
②①③④ |③---|
④口①口 |④---|
13
②④①③ |①---|
口口②口 |②---|
③①④口 |③---|
④②③① |④---|
14
口口口口 |①---|
口①口① |----|
口①口① |----|
口口口口 |----|
15
口口口口 |----|
口口口口 |----|
口口口口 |----|
口口口口 |----|
16
口口口口 |----|
口口口口 |----|
口口口口 |----|
口口口口 |----|
17
口口口口 |----|
口口口口 |----|
口口口口 |----|
口口口口 |----|
18
口口①① |①---|
口①口口 |----|
①口①口 |----|
①口口口 |----|
19
①①口口 |①---|
口口①口 |----|
口①口① |----|
口口口① |----|
20
①①①口 |①---|
口①口口 |----|
口①口口 |----|
口口口口 |----|
21
口口口口 |①---|
口①①① |----|
口口①口 |----|
口口①口 |----|
22
口口⑪⑪ |①②③④|
②⑩口① |⑤-⑥⑦|
④⑧⑨③ |⑧⑨⑩-|
口⑥⑦⑤ |⑪---|
23
⑪⑪口口 |①②③④|
①口⑩② |⑤-⑥⑦|
③⑨⑧④ |⑧⑨⑩-|
⑤⑦⑥口 |⑪---|
24
口口⑪⑪ |①②③④|
②⑩口① |⑤-⑥⑦|
④⑧⑨③ |⑧⑨⑩-|
口⑥⑦⑤ |⑪---|
25
⑨口口口 |①②③④|
①口口② |⑤-⑥⑦|
③口⑧④ |⑧---|
⑤⑦⑥⑧ |⑨---|
26
口⑥⑦⑤ |①②③④|
④⑧⑨③ |⑤-⑥⑦|
②⑩口① |⑧⑨⑩-|
口口⑪⑪ |⑪---|
27
⑤⑦⑥口 |①②③④|
③⑨⑧④ |⑤-⑥⑦|
①口⑩② |⑧⑨⑩-|
⑪⑪口口 |⑪---|
28
口⑥⑦⑤ |①②③④|
④⑧⑨③ |⑤-⑥⑦|
②⑩口① |⑧⑨⑩-|
口口⑪⑪ |⑪---|
29
⑤⑦⑥⑧ |①②③④|
③口⑧④ |⑤-⑥⑦|
①⑨⑩② |⑧-⑨-|
⑨口口⑩ |⑩---|
30
⑥口口⑦ |①②③④|
口⑧⑨⑤ |⑤-⑥⑦|
④⑩⑪③ |⑧⑨⑩-|
口②①⑪ |⑪---|
31
⑦口口⑥ |①②③④|
⑤⑨⑧口 |⑤-⑥⑦|
③⑪⑩④ |⑧⑨⑩-|
⑪①②口 |⑪---|
32
⑥口口⑦ |①②③④|
口⑧⑨⑤ |⑤-⑥⑦|
④⑩⑪③ |⑧⑨⑩-|
口②①⑪ |⑪---|
33
⑦口口⑥ |①②③④|
⑤口⑧口 |⑤-⑥⑦|
③⑨口④ |⑧---|
⑨①②口 |⑨---|
34
⑥②①⑦ |①②③④|
④⑧⑨③ |⑤-⑥⑦|
口口口⑤ |⑧⑨⑩-|
⑩⑩口口 |----|
35
⑦①②⑥ |①②③④|
③⑨⑧④ |⑤-⑥⑦|
⑤口口口 |⑧⑨⑩-|
口口⑩⑩ |----|
36
⑥②①⑦ |①②③④|
④⑧⑨③ |⑤-⑥⑦|
口口口⑤ |⑧⑨⑩-|
⑩⑩口⑪ |⑪---|
37
⑦①②⑥ |①②③④|
③⑨⑧④ |⑤-⑥⑦|
⑤口⑩口 |⑧⑨⑩-|
⑪⑪口口 |⑪---|
38
口⑤④口 |①-②-③-|
⑥⑪⑩③ |④-⑤-⑥-|
⑦⑫⑨② |⑦-⑧-⑨-|
口⑧①口 |⑩-⑪-⑫-|
39
口⑤④口 |①-②-③-|
⑥⑪⑩③ |④-⑤-⑥-|
⑦⑫⑨② |⑦-⑧-⑨-|
口⑧①口 |⑩-⑪-⑫-|
40
①⑨②① |①-②-③-|
⑧口⑩③ |④-⑤-⑥-|
⑦⑫⑪④ |⑦-⑧-⑨-|
口⑥⑤口 |⑩-⑪-⑫-|
41
口⑨②口 |①-②-③-|
⑧①⑩③ |④-⑤-⑥-|
⑦⑫⑪④ |⑦-⑧-⑨-|
口⑥⑤口 |⑩-⑪-⑫-|
42
①口口口 |①-②-③-|
口①口口 |④-⑤-⑥-|
口口口⑥
⑤④③②

⑪⑩⑨⑧
口口口⑫
⑦口口口 |⑦-⑧-⑨-|
口口口口 |⑩-⑪-⑫-|
43
口口口口 |①-②-③-|
①⑩⑪⑫ |④-⑤-⑥-|
⑨⑧⑦⑥ |⑦-⑧-⑨-|
⑤④③② |⑩-⑪-⑫-|
44
口②⑧① |①-②-③-|
③⑨口口 |④-⑤-⑥-|
⑩⑥⑫④ |⑦-⑧-⑨-|
⑦⑪⑤口 |⑩-⑪-⑫-|
45
口②口④ |①---|
③口⑤① |----|
口⑥口口 |②-③-④-|
⑦口口口 |⑤-⑥-⑦-|
46
口口口口 |①---|
口口口口 |----|
口口口① |----|
口口①口 |----|
47
口口口口 |----|
口口口口 |----|
口口口口 |----|
口口口口 |----|
48
口口口口 |----|
口口口口 |----|
口口口口 |----|
口口口口 |----|
49
①③③② |①---|
口①②口 |②---|
④口口④ |③--④|
①⑤⑤② |--⑤-|
50
④⑦⑤④ |①-②-|
②③③② |③-④-|
⑦①①⑤ |--⑤-|
口⑥口口 |⑥-⑦-|
51
②口口口 |--①-|
③⑤④① |②-③-|
口⑦⑥口 |--④⑤|
口⑨⑧① |⑥⑦⑧⑨|
52
口④③⑦ |①-②-|
④口口③ |③-④-|
②口⑦① |--⑤-|
⑤⑥口口 |⑥-⑦-|
53
①口①口 |--①-|
②⑨⑧② |②-③-|
③⑦⑥③ |--④⑤|
口⑤④口 |⑥⑦⑧⑨|
54
③④①② |①-②-|
④口口口 |③-④-|
⑤口口⑥ |--⑤-|
⑦⑧口口 |⑥-⑦⑧|
55
口口口口 |①-②-|
⑥④⑤⑦ |③-④-|
⑧②③⑨ |⑤-⑥⑦|
⑩口①⑪ |⑧⑨⑩⑪|
56
口口口口 |①-②-|
口③④口 |③-④-|
口①②口
口①口口

⑧口⑦⑥
⑤口口口
口⑧口⑥ |⑤-⑥-|
口口口口 |⑦-⑧-|
57
⑦⑥口⑤ |①-②-|
④⑤⑥② |③-④-|
①口口⑦ |⑤-⑥-|
④③②口 |⑦---|
58
口⑦⑤④ |①-②-|
③口口② |③-④-|
⑦①①⑤ |--⑤-|
口⑥口口 |⑥-⑦-|
59
②口口口 |--①-|
③⑤④① |②-③-|
口⑦⑥口 |--④⑤|
口⑨⑧① |⑥⑦⑧⑨|
60
⑤④③⑦ |①-②-|
④口口③ |③-④-|
②⑤⑦① |--⑤-|
⑥口口口 |⑥-⑦-|
61
口口①口 |--①-|
②①口② |②-③-|
③口口③
口口口口

口口口口
口⑨⑧口
口⑦⑥口 |--④⑤|
口⑤④口 |⑥⑦⑧⑨|
62
③④①② |①-②-|
④口口口 |③-④-|
⑤口口⑥ |--⑤-|
⑦⑧口口 |⑥-⑦⑧|
63
⑥口口⑦ |①-②-|
⑧④⑤⑨ |③-④-|
⑩②③⑪ |⑤-⑥⑦|
口口①口 |⑧⑨⑩⑪|
64
口口口口 |①-②-|
口③④口 |③-④-|
口①②口
①③口②

⑧⑤⑦⑥
口口口口
口⑧口⑦ |⑤-⑥-|
口口口口 |⑦-⑧-|
65
口⑤口⑤ |①-②-|
④③口② |③-④-|
①口⑤口 |⑤---|
①③②口 |----|
66
口⑩⑤⑪ |①②③④|
⑩⑧③⑤ |⑤-⑥⑦|
口④⑨口 |⑧⑨⑩-|
②⑥①⑦ |⑪---|
67
口⑩⑤口 |①②③④|
⑩⑧③⑤ |⑤-⑥⑦|
口④⑨⑪ |⑧⑨⑩-|
②⑥①⑦ |⑪---|
68
口⑩⑤⑪ |①②③④|
⑩⑧③⑤ |⑤-⑥⑦|
口④⑨口 |⑧⑨⑩-|
②⑥①⑦ |⑪---|
69
⑩口⑤⑨ |①②③④|
口⑧③⑤ |⑤-⑥⑦|
⑩④口⑨ |⑧-⑨-|
②⑥①⑦ |⑩---|
70
口④⑨⑪ |①②③④|
⑧⑩⑤③ |⑤-⑥⑦|
口⑥①⑪ |⑧⑨⑩-|
②⑩⑤⑦ |⑪---|
71
⑪④⑨口 |①②③④|
⑧⑩⑤③ |⑤-⑥⑦|
⑪⑥①口 |⑧⑨⑩-|
②⑩⑤⑦ |⑪---|
72
口④⑨⑪ |①②③④|
⑧⑩⑤③ |⑤-⑥⑦|
口⑥①⑪ |⑧⑨⑩-|
②⑩⑤⑦ |⑪---|
73
口口口口 |①②③④|
口口⑤① |⑤-⑥-|
口④⑥口
②口③口

口⑩⑪口
⑨口口⑫
⑧口口⑬ |⑦⑧⑨⑩|
口⑦⑭口 |⑪⑫⑬⑭|
74
口口口口 |①---|
口①口口 |----|
口①口口 |----|
①口口① |----|


不确定度: 0

最終更新:2013年10月01日 22:00