Our Faith
kors k

ADVANCED

Level: 8
BPM: 175
Notes: 655

1
口口口口 |----|
口口口口 |----|
口口口口 |----|
口口口口 |----|
2
口④③② |①---|
口口口口 |②---|
口口口口 |③---|
口①①口 |④---|
3
④口口口 |①---|
①②③口 |②---|
口口口口 |③---|
口口口口 |④---|
4
口口口口 |①---|
③④口口 |②---|
口口②① |③---|
口口口口 |④---|
5
口口④③ |①---|
口口①口 |②---|
口口口口 |③---|
②口口口 |④---|
6
口口口口 |①---|
口①②口 |②---|
口③④口 |③---|
口口口口 |④---|
7
①口口② |①-②-|
③口口④ |③-④-|
⑤口口⑥ |⑤-⑥-|
⑦口口⑧ |⑦-⑧-|
8
⑨①②⑩ |①②③④|
⑪③④⑫ |⑤⑥⑦⑧|
⑬⑤⑥⑭ |⑨⑩⑪⑫|
⑮⑦⑧⑯ |⑬⑭⑮⑯|
9
口③②口 |①---|
口①④口 |②③④-|
⑨⑤⑥口 |⑤⑥⑦⑧|
口⑦⑧口 |⑨---|
10
⑥②口① |①---|
口③口① |--②③|
口④口⑤ |④---|
口口⑤口 |⑤-⑥-|
11
口口④口 |①---|
①口①④ |②---|
②⑤②口 |③---|
⑤③口③ |④-⑤-|
12
⑤口口口 |①---|
⑤①①口 |--②③|
口口口口 |④---|
口②③④ |⑤---|
13
⑥口③口 |①---|
口①口① |②---|
②口②口 |③-④-|
口④⑤口 |⑤-⑥-|
14
⑥②口① |①---|
口③口① |--②③|
口④口⑤ |④---|
口口⑤口 |⑤-⑥-|
15
口④口③ |①---|
①口①口 |②---|
②⑥②⑤ |③-④-|
口口口口 |⑤-⑥-|
16
⑤口口口 |①---|
⑤①①口 |--②③|
口口口口 |④---|
口②③④ |⑤---|
17
⑥口③口 |①---|
口①口① |②---|
②口②口 |③-④-|
口④⑤口 |⑤-⑥-|
18
口口②口 |①---|
口①①② |----|
口口口口 |②---|
口口口口 |----|
19
口口口口 |①---|
口①口口 |----|
①口②口 |②---|
口口口② |----|
20
②口口② |①---|
口口口口 |----|
口口口口 |----|
口①①口 |②---|
21
口口口口 |①---|
口口口口 |----|
口口口口 |----|
①口口① |----|
22
口口②口 |①---|
口①①② |----|
口口口口 |②---|
口口口口 |----|
23
口口口口 |①---|
口①口口 |----|
①口②口 |②---|
口口口② |----|
24
②口口② |①---|
口口口口 |②---|
口口口口
口①①口

口口口口
口口口口
口口口口 |③---|
③④④③ |--④-|
25
①口口① |--①-|
口口口口 |②---|
②口口② |----|
口口口口 |----|
26
口口②口 |①---|
口①①② |----|
口口口口 |②---|
口口口口 |----|
27
口口口口 |①---|
口①口口 |----|
①口②口 |②---|
口口口② |----|
28
②口口② |①---|
口口口口 |----|
口口口口 |----|
口①①口 |②---|
29
口②口口 |①---|
口口③口 |----|
口④口口 |②-③-|
①口⑤① |④-⑤-|
30
口口口口 |①---|
①①②口 |----|
口口口口 |----|
口口口口 |--②-|
31
口③③口 |①-②-|
口口口口 |--③-|
口①②口 |----|
④口口④ |④---|
32
①口口② |①-②-|
③口口④ |③-④-|
⑤口口⑥ |⑤-⑥-|
⑦口口⑧ |⑦-⑧-|
33
⑨①②⑬ |①②③④|
⑩③④⑭ |⑤⑥⑦⑧|
⑪⑤⑥⑮ |⑨⑩⑪⑫|
⑫⑦⑧⑯ |⑬⑭⑮⑯|
34
口③④口 |①--②|
口①①口 |-③④-|
口②②口
口口口口

口口口口
口⑦⑧口
⑥口口⑥ |⑤--⑥|
口⑤⑤口 |-⑦⑧-|
35
①口口① |①--②|
⑤⑦⑧⑤ |-③④-|
⑥③④⑥ |⑤--⑥|
②口口② |-⑦⑧-|
36
①口口① |①--②|
⑤⑦⑧⑤ |-③④-|
口③④口 |⑤--⑥|
⑥②②⑥ |-⑦⑧-|
37
①⑤口① |①--②|
口口口⑥ |-③④-|
②⑦口② |⑤-⑥-|
口③④⑧ |⑦-⑧-|
38
②口口② |①---|
④①①⑤ |②---|
④口口⑤ |③---|
口③③口 |④-⑤-|
39
②口口② |①---|
④①①⑤ |②---|
④口口⑤ |③---|
口③③口 |④-⑤-|
40
⑨①②⑩ |①②③④|
⑪③④⑫ |⑤⑥⑦⑧|
⑬⑤⑥⑭ |⑨⑩⑪⑫|
⑮⑦⑧⑯ |⑬⑭⑮⑯|
41
口③②口 |①---|
口①④口 |②③④-|
⑨⑤⑥口 |⑤⑥⑦⑧|
口⑦⑧口 |⑨---|
42
口⑤⑤口 |①--②|
①③④① |-③④-|
口⑦⑧口 |⑤--⑥|
②⑥⑥② |-⑦⑧-|
43
口⑤⑤口 |①--②|
①③④① |-③④-|
⑦⑧⑨口 |⑤--⑥|
②⑥⑥② |-⑦⑧⑨|
44
②④⑤③ |①②-③|
⑧⑨⑩③ |-④⑤-|
口口口① |⑥--⑦|
⑦⑥⑥⑦ |-⑧⑨⑩|
45
⑧④⑤⑨ |①--②|
口口口① |-③-④|
③③②② |⑤-⑥⑦|
口⑥⑦口 |⑧-⑨-|
46
口⑤⑤口 |①--②|
①③④① |-③④-|
口⑦⑧口 |⑤--⑥|
②⑥⑥② |-⑦⑧-|
47
口⑤⑤口 |①--②|
①③④① |-③④-|
⑦⑧⑨口 |⑤--⑥|
②⑥⑥② |-⑦⑧⑨|
48
②口口② |①---|
口④③口 |②---|
口口口① |③--④|
④⑤⑤③ |--⑤-|
49
①⑤口① |--①-|
口口④口 |②-③④|
②③⑥② |⑤-⑥-|
口⑦⑧口 |⑦-⑧-|
50
口⑤⑤口 |①--②|
①③④① |-③④-|
口⑦⑧口 |⑤--⑥|
②⑥⑥② |-⑦⑧-|
51
口⑤⑤口 |①--②|
①③④① |-③④-|
⑦⑧⑨口 |⑤--⑥|
②⑥⑥② |-⑦⑧⑨|
52
②口口③ |①②-③|
④⑤⑥口 |-④⑤⑥|
口口口①
口口口口

口口口口
口口口⑦
口⑫⑪⑩ |⑦⑧-⑨|
⑧口口⑨ |-⑩⑪⑫|
53
⑦口口口 |①--②|
③④⑤⑥ |③④⑤⑥|
①口口⑧ |⑦-⑧-|
⑨口②⑩ |⑨-⑩-|
54
口②②口 |①---|
③口口③ |②---|
④①①⑤ |③---|
④口口⑤ |④-⑤-|
55
⑥③③② |①-②-|
口口⑤⑦ |--③-|
口④口口 |--④⑤|
口①口口 |⑥-⑦-|
56
⑤口口⑤ |①---|
口④③口 |②---|
④口口③ |③--④|
①②②口 |--⑤-|
57
口③③口 |①---|
口口口口 |----|
口①①口 |②---|
①②②① |③---|
58
④口口① |①--②|
⑤④①② |--③-|
⑤⑥③② |-④--|
⑥口口③ |⑤-⑥-|
59
口④①口 |①--②|
④⑤②① |--③-|
⑥⑤②③ |-④--|
口⑥③口 |⑤-⑥-|
60
⑤⑤②② |①--②|
⑥⑥③③ |--③-|
口④①口 |-④--|
④口口① |⑤-⑥-|
61
口口②② |①--②|
⑥口口③ |--③-|
⑥⑤①③ |-④--|
⑤④④① |⑤-⑥-|
62
④口口① |①--②|
⑤④①② |--③-|
⑤⑥③② |-④--|
⑥口口③ |⑤-⑥-|
63
⑤⑤②② |①--②|
⑥⑥③③ |--③-|
④口口① |-④--|
口④①口 |⑤-⑥-|
64
⑤⑤②② |①--②|
⑥⑥③③ |--③-|
口④①口 |-④--|
④口口① |⑤-⑥-|
65
口口②② |①--②|
⑥口口③ |--③-|
⑥⑤①③ |-④--|
⑤④④① |⑤-⑥-|
66
口①口口 |①--②|
口③②④ |--③-|
口⑤⑥口 |-④--|
口⑤⑥口 |⑤-⑥-|
67
①口口① |----|
③①①口 |①---|
③②口口 |----|
口②口口 |②-③-|
68
⑤⑤②② |①--②|
⑥⑥③③ |--③-|
口④①口 |-④--|
④口口① |⑤-⑥-|
69
口口②② |①--②|
⑥口口③ |--③-|
⑥⑤①③ |-④--|
⑤④④① |⑤-⑥-|
70
⑤①②⑥ |①-②-|
⑦③④⑧ |③-④-|
口口口口 |⑤-⑥-|
口口口口 |⑦-⑧-|
71
口口口口 |①-②-|
口口口口 |③-④-|
⑤①②⑥ |⑤-⑥-|
⑦③④⑧ |⑦-⑧-|
72
⑨①②⑩ |①②③④|
⑪③④⑫ |⑤⑥⑦⑧|
⑫⑤⑥⑬ |⑨⑩⑪-|
⑭⑦⑧⑮ |⑫⑬⑭⑮|
73
口①①口 |①--②|
④②②⑤ |--③④|
⑥③③⑦ |-⑤-⑥|
⑧⑥⑦⑧ |⑦-⑧-|
74
①口口① |①---|
口①①口 |----|
口口口口 |----|
口口口口 |----|

不確定度: 0

最終更新:2014年03月16日 15:35