ダイナマイト
→Pia-no-jaC←

EXTREME

Level: 10
BPM: 125
Notes: 907

全程BPM在125附近飄忽不定
1
⑥④④⑥ |①--②|
②⑤⑤① |--③-|
口①②口 |-④--|
③口口③ |⑤-⑥-|
2
口口②口 |①---|
口口口② |--②-|
口口口口 |----|
口①①口 |----|
3
⑥④④⑥ |①--②|
②⑤⑤① |--③-|
口①②口 |-④--|
③口口③ |⑤-⑥-|
4
⑤口口⑥ |①---|
③⑤⑥④ |②---|
口③④口 |③-④-⑤-|
②①①② |⑥---|
5
⑥⑤口口 |①--②|
⑥⑤④④ |--③-|
①②③口 |-④--|
①②口③ |⑤-⑥-|
6
⑤⑥口口 |①--②|
⑤⑥④④ |--③-|
①②③口 |-④--|
①②口③ |⑤-⑥-|
7
⑥⑤口口 |①--②|
⑥⑤④④ |--③-|
①②③口 |-④--|
①②口③ |⑤-⑥-|
8
口口口口 |①②-③|
口⑤④口 |-④⑤-|
口①口②
口③③口

口口口口
⑦口口⑥
⑥⑧⑨⑦ |⑥-⑦-|
⑨口口⑧ |⑧-⑨-|
9
①⑤⑯⑥ |①②③④|
⑨⑮②⑩ |⑤⑥⑦⑧|
③⑦⑫⑭ |⑨⑩⑪⑫|
⑪⑬④⑧ |⑬⑭⑮⑯|
10
①⑤⑭⑥ |①②③④|
⑨⑮②⑩ |⑤⑥⑦⑧|
③⑦⑫⑯ |⑨⑩⑪⑫|
⑪⑬④⑧ |⑬⑭⑮⑯|
11
①⑤⑯⑥ |①②③④|
⑨⑮②⑩ |⑤⑥⑦⑧|
③⑦⑫⑭ |⑨⑩⑪⑫|
⑪⑬④⑧ |⑬⑭⑮⑯|
12
①⑤口⑥ |①②③④|
口口②口 |⑤⑥⑦⑧|
③⑦口口
口口④⑧

⑬口口口
⑨⑮⑭⑩
口口⑫⑯ |⑨⑩⑪⑫|
口⑪口口 |⑬⑭⑮⑯|
13
⑥⑤口口 |①--②|
⑥⑤④④ |--③-|
①②③口 |-④--|
①②口③ |⑤-⑥-|
14
⑤⑥口口 |①--②|
⑤⑥④④ |--③-|
①②③口 |-④--|
①②口③ |⑤-⑥-|
15
⑥⑤口口 |①--②|
⑥⑤④④ |--③-|
①②③口 |-④--|
①②口③ |⑤-⑥-|
16
口口口口 |①②-③|
口⑤④口 |-④⑤-|
口①口②
口③③口

口口口口
⑦口口⑥
⑥⑧⑨⑦ |⑥-⑦-|
⑨口口⑧ |⑧-⑨-|
17
①⑤⑯⑥ |①②③④|
⑨⑮②⑩ |⑤⑥⑦⑧|
③⑦⑫⑭ |⑨⑩⑪⑫|
⑪⑬④⑧ |⑬⑭⑮⑯|
18
①⑤⑭⑥ |①②③④|
⑨⑮②⑩ |⑤⑥⑦⑧|
③⑦⑫⑯ |⑨⑩⑪⑫|
⑪⑬④⑧ |⑬⑭⑮⑯|
19
①⑤⑯⑥ |①②③④|
⑨⑮②⑩ |⑤⑥⑦⑧|
③⑦⑫⑭ |⑨⑩⑪⑫|
⑪⑬④⑧ |⑬⑭⑮⑯|
20
①⑤口⑥ |①②③④|
口口②口 |⑤⑥⑦⑧|
③⑦口口
口口④⑧

口口口口
⑨⑪⑪⑩
口口口口 |⑨⑩-⑪|
口口口口 |----|
21
⑤④⑦④ |①-②-|
③⑥③口 |③-④-|
⑤②⑦② |⑤-⑥-|
①⑥①⑧ |⑦-⑧-|
22
⑤④口④ |①-②-|
③⑥③口 |③-④-|
⑤②⑦② |⑤-⑥⑦|
①⑧①⑨ |⑧-⑨-|
23
⑤④⑦④ |①-②-|
③⑥③口 |③-④-|
⑤②⑦② |⑤-⑥-|
①⑥①⑧ |⑦-⑧-|
24
⑥④⑤⑤ |①-②③|
口⑦③⑧ |④-⑤-|
⑥②⑨口 |⑥-⑦-|
①⑦①⑧ |⑧-⑨-|
25
⑤④⑦④ |①-②-|
③⑥③口 |③-④-|
⑤②⑦② |⑤-⑥-|
①⑥①⑧ |⑦-⑧-|
26
⑤④口④ |①-②-|
③⑥③口 |③-④-|
⑤②⑦② |⑤-⑥⑦|
①⑧①⑨ |⑧-⑨-|
27
⑤④⑦④ |①-②-|
③⑥③口 |③-④-|
⑤②⑦② |⑤-⑥-|
①⑥①⑧ |⑦-⑧-|
28
⑥④⑤⑤ |①-②③|
口⑦③⑧ |④-⑤-|
⑥②⑨口 |⑥-⑦-|
①⑦①⑧ |⑧-⑨-|
29
口①口① |①--②|
⑥③口③ |--③-|
④②④② |④--⑤|
⑤⑦⑤⑦ |⑥-⑦-|
30
①②③④ |①②③④⑤⑥|
⑧⑦⑥⑤ |⑦⑧⑨⑩⑪⑫|
⑨⑩⑪⑫
口口口口

⑰⑱⑲口
口⑳口口
口口口口 |⑬⑭⑮⑯⑰⑱|
⑯⑮⑭⑬ |⑲-⑳-|
31
口口口口 |①--②|
①口①③ |--③-|
口口口口
②口②③

⑤口⑤口
⑦口口口
④口④⑥ |④--⑤|
口口口口 |⑥-⑦-|
32
口①口① |①--②|
口口③口 |③-④-|
②④②④
口口口口

口口⑦口
⑧⑥口⑤
口口⑦口 |⑤-⑥-|
⑧⑥口⑤ |⑦-⑧-|
33
口①口① |①--②|
口③口③ |--③-|
口②口②
口口口口

口口口口
口口口口
⑤口⑤⑥ |④--⑤|
⑦④⑦④ |⑥-⑦-|
34
①②③④ |①②③④⑤⑥|
⑧⑦⑥⑤ |⑦⑧⑨⑩⑪⑫|
⑨⑩⑪⑫
口口口口

⑰⑱⑲口
口口口口
口口口口 |⑬⑭⑮⑯⑰⑱|
⑯⑮⑭⑬ |⑲---|
35
口口口口 |①--②|
②①②① |--③-|
口口口口
口③口③

口⑤口口
⑥口口口
④⑤④⑥ |④--⑤|
口口口口 |--⑥-|
36
口⑧①⑨ |①②③④|
⑪②⑦⑩ |⑤⑥⑦⑧|
口⑥③口 |⑨-⑩-|
⑩④⑤⑪ |-⑪--|
37
①⑤①⑥ |①②③④|
口①②口 |⑤⑥⑦⑧|
③⑦口口
口口④⑧

口口⑯口
⑨⑮口⑩
口口⑫⑭ |⑨⑩⑪⑫|
⑪⑬口口 |⑬⑭⑮⑯|
38
①⑤⑭⑥ |①②③④|
⑨⑮②⑩ |⑤⑥⑦⑧|
③⑦⑫⑯ |⑨⑩⑪⑫|
⑪⑬④⑧ |⑬⑭⑮⑯|
39
①⑤⑯⑥ |①②③④|
⑨⑮②⑩ |⑤⑥⑦⑧|
③⑦⑫⑭ |⑨⑩⑪⑫|
⑪⑬④⑧ |⑬⑭⑮⑯|
40
①⑤口⑥ |①②③④|
口口②口 |⑤⑥⑦⑧|
③⑦口口
口口④⑧

⑬口口口
⑨⑮⑭⑩
口口⑫⑯ |⑨⑩⑪⑫|
⑪口口口 |⑬⑭⑮⑯|
41
②②⑥④ |①---|
口口④⑦ |-②-③|
①①⑧⑤ |④-⑤-|
③口⑤⑨ |⑥⑦⑧⑨|
42
①⑤⑨口 |①②③④⑤⑥|
②⑥⑩口 |⑦⑧⑨⑩⑪⑫|
③⑦⑪口
④⑧⑫口

⑰A口⑬
⑱B口⑭
⑲C口⑮ |⑬⑭⑮⑯⑰⑱|
⑳D口⑯ |⑲⑳ABCD|
43
④口①口 |①②--|
口口口口 |③-④⑤|
口口②⑤
口口口③

口口口⑨
⑧口⑦口
⑫口口口 |-⑥⑦⑧|
⑩⑥⑪口 |⑨⑩⑪⑫|
44
⑪②⑤⑪ |-①②③|
⑥⑧⑨口 |④⑤⑥⑦|
口④③⑦ |⑧⑨⑩-|
口⑩⑩① |⑪---|
45
口④④口 |①②③-|
①口口① |-④--|
②口口②
③口口③

口⑧⑧口
口⑦⑦口
口⑥⑥口 |⑤-⑥-|
口⑤⑤口 |⑦-⑧-|
46
⑦⑮⑯⑧ |①②③④|
⑤⑬⑭⑥ |⑤⑥⑦⑧|
③⑪⑫④ |⑨⑩⑪⑫|
①⑨⑩② |⑬⑭⑮⑯|
47
①口口② |①②③④|
①⑤口② |-⑤-⑥|
③⑥口④
口③④口

⑨口口⑨
口口口口
口口⑦口 |⑦-⑧-|
⑧⑩⑩⑧ |⑨--⑩|
48
④③③④ |-①②-|
口①②口 |③-④-|
①口口②
口口口口

口口口口
⑤口口⑥
⑦⑤⑥⑧ |⑤-⑥-⑦-|
口⑦⑧口 |⑧---|
49
⑤①⑥② |①②③④|
③⑦④⑧ |-⑤⑥⑦|
口口口口 |⑧---|
口口口口 |----|
50
③②③② |①②-③|
④⑤④⑤ |-④-⑤|
口口口口
①口口①

⑦口口⑦
口口口口
口⑦⑦口 |--⑥-|
口⑥⑥口 |⑦---|
51
口口口口 |①--②|
③口口③ |--③-|
②口口②
①口口①

口④④口
口⑥⑥口
⑤口口⑤ |-④--|
口口口口 |⑤-⑥-|
52
口④④口 |①--②|
③⑥⑥③ |--③-|
⑤②②⑤ |-④--|
①口口① |⑤-⑥-|
53
①口⑤⑥ |①②③④|
④口⑧口 |⑤⑥⑦⑧|
⑦口口口
口口②③

⑬口⑭⑮
口口口⑨
口口⑪⑫ |⑨⑩⑪⑫|
⑩口口口 |⑬⑭⑮-|
54
⑦⑧口口 |①②③④|
⑥口口口 |⑤⑥⑦⑧|
⑤口口口
④③②①

口口⑨⑩
口口口⑪
口口口⑫ |⑨⑩⑪⑫|
⑯⑮⑭⑬ |⑬⑭⑮⑯|
55
①①④口 |①②③④|
⑦口②口 |-⑤⑥⑦|
③⑤⑥口
口口口口

⑨⑩⑪⑧
口⑨⑩⑪
口口口口 |⑧-⑨-|
口口口口 |⑩-⑪-|
56
③口⑤⑤ |①-②-|
口口④口 |③④-⑤|
口口①①
口口②②

口口口口
口⑧口⑨
口⑩⑦口 |-⑥⑦⑧|
口⑥⑪口 |⑨⑩⑪-|
57
④③②① |①②③④|
⑤⑥⑦口 |⑤⑥⑦⑧|
口口口⑧
口口口口

⑪⑫⑬口
口口口口
口口⑨口 |⑨-⑩-|
口⑩⑩口 |-⑪⑫⑬|
58
口口口口 |①-②③|
口①①口 |-④⑤-|
②③口口
口口⑤④

口口口口
⑥⑦⑧⑨
⑩⑪⑫⑬ |⑥⑦⑧⑨|
口口口口 |⑩⑪⑫⑬|
59
②口①① |①②③④|
⑥⑤⑦⑤ |⑤⑥⑦⑧|
⑧口口口
④口③口

口⑩⑪口
⑯口口口
口⑫⑨⑨ |⑨⑩⑪⑫|
⑭⑬⑮⑬ |⑬⑭⑮⑯|
60
②⑥⑦① |①②③④|
口⑤①⑤ |⑤⑥⑦⑧|
④口③口
⑧口口口

口⑯口口
⑫口⑪口
⑭⑩⑮⑨ |⑨⑩⑪⑫|
口⑬⑨⑬ |⑬⑭⑮⑯|
61
②口①① |①②③④|
⑥⑤⑦⑤ |⑤⑥⑦⑧|
⑧口口口
④口③口

口⑩⑪口
⑯口口口
口⑫⑨⑨ |⑨⑩⑪⑫|
⑭⑬⑮⑬ |⑬⑭⑮⑯|
62
②⑥⑦① |①②③④|
口⑤①⑤ |⑤⑥⑦⑧|
④口③口
⑧口口口

口⑯⑯口
⑫口⑪口
⑭⑩⑮⑨ |⑨⑩⑪⑫|
口⑬⑨⑬ |⑬⑭⑮⑯|

不確定度: 0

タグ:

+ タグ編集
  • タグ:

このサイトはreCAPTCHAによって保護されており、Googleの プライバシーポリシー利用規約 が適用されます。

最終更新:2012年11月13日 17:13