愛は不死鳥の様に
真紅の薔薇の騎士Prim

ADVANCED

Level: 9
BPM: 192
Notes: 648

1
口口口口 |----|
口口口口 |----|
口口口口 |----|
口口口口 |----|
2
口口口口 |----|
口口口口 |----|
口口口口 |----|
口口口口 |----|
3
口口⑥口 |①-②-|
口⑧⑦⑤ |③-④-|
①②口口 |⑤-⑥-|
口③④口 |⑦-⑧-|
4
口口⑥⑤ |①-②-|
口⑧⑦口 |③-④-|
①②口口 |⑤-⑥-|
口③④口 |⑦-⑧-|
5
口⑦口口 |①-②-|
⑧口⑥口 |③-④-|
①②口⑤ |⑤-⑥-|
口③④口 |⑦-⑧-|
6
⑤口口口 |①-②-|
口⑥口口 |③-④-|
口②⑦④ |⑤-⑥-|
①口③⑧ |⑦-⑧-|
7
口口⑥口 |①-②-|
口⑧⑦⑤ |③-④-|
①②口口 |⑤-⑥-|
口③④口 |⑦-⑧-|
8
口⑦口口 |①-②-|
口⑧⑥口 |③-④-|
①②口⑤ |⑤-⑥-|
口③④口 |⑦-⑧-|
9
口口⑤口 |①-②-|
口⑥口口 |③-④-|
①②⑦口 |--⑤-|
口③④口 |⑥-⑦-|
10
④①口④ |--①-|
口⑤②口 |②-③-|
口③⑤口 |--④-|
⑥口口⑥ |⑤-⑥-|
11
口口口口 |--①-|
①口①口 |②-③-|
④③⑦⑤ |④-⑤-|
口②⑥口 |⑥-⑦-|
12
④③④③ |①-②-|
②①②① |③-④-|
口口⑥口 |--⑤-|
口⑤⑦⑤ |⑥-⑦-|
13
⑤⑦③⑥ |①-②-|
口④②⑧ |③-④-|
口①口① |⑤-⑥-|
口口口口 |⑦-⑧-|
14
口⑤口口 |①-②-|
口⑦⑥口 |③-④-|
①②①② |--⑤-|
③④③④ |⑥-⑦-|
15
口口①口 |①-②-|
②口口② |③-④-|
③⑤口③ |--⑤-|
④⑦⑥④ |⑥-⑦-|
16
②口口② |①-②-|
③口⑦③ |③-④-|
④⑥①④ |--⑤-|
口口⑤口 |⑥-⑦-|
17
①②④③ |①-②-|
口⑦口口 |③-④-|
口口⑥口 |--⑤-|
口⑤口口 |⑥-⑦-|
18
①口口④ |①-②-|
②口③口 |③-④-|
口③口② |----|
④口口① |----|
19
口口口口 |--①-|
口①口① |②-③-|
⑤⑦③④ |④-⑤-|
口⑥②口 |⑥-⑦-|
20
③④③④ |①-②-|
①②①② |③-④-|
口⑥口口 |--⑤-|
⑤⑦⑤口 |⑥-⑦-|
21
⑥③⑦⑤ |①-②-|
⑧②④口 |③-④-|
①口①口 |⑤-⑥-|
口口口口 |⑦-⑧-|
22
口口⑤口 |①-②-|
口⑥⑦口 |③-④-|
②①②① |--⑤-|
④③④③ |⑥-⑦-|
23
口①口口 |①-②-|
②口口② |③-④-|
③口⑤③ |--⑤-|
④⑥⑦④ |⑥-⑦-|
24
④口口④ |①-②-|
③⑦口③ |③-④-|
②①⑥② |--⑤-|
口⑤口口 |⑥-⑦-|
25
③④②⑥ |①-②-|
口口①⑤ |③-④-|
⑦⑧⑧⑦ |⑤-⑥-|
口口口口 |⑦-⑧-|
26
口口口口 |①---|
口②口口 |----|
口口②口 |----|
①口口① |②---|
27
口口口口 |①---|
口②①口 |----|
口①②口 |----|
口口口口 |②---|
28
③口口口 |①---|
口④①口 |--②-|
口①⑤口 |--③-|
②口口② |④-⑤-|
29
口口口① |①-②-|
口口②口 |③-④-|
口③口口
④口口④

⑧⑦⑦⑧
⑥口口⑥
⑤口口⑤ |⑤-⑥-|
口口口口 |⑦-⑧-|
30
口口口口 |----|
口口口口 |--①-|
①口口① |----|
口口口口 |----|
31
⑦口口⑦ |①-②-|
⑥口口③ |③-④-|
口⑤②口 |⑤-⑥-|
口①④口 |--⑦-|
32
口口口口 |--①-|
③①①③ |--②-|
口④④口 |③---|
口②②口 |④---|
33
口口口① |①-②-|
口口②口 |③-④-|
口口口口
口③④口

⑧⑦⑦⑧
⑥口口⑥
⑤口口⑤ |⑤-⑥-|
口口口口 |⑦-⑧-|
34
口口口口 |----|
口①口口 |----|
口口①口 |----|
口口口口 |①---|
35
口口口⑥ |①---|
口口①④ |--②-|
口①口⑤ |③-④-|
②口口③ |⑤-⑥-|
36
口口口口 |----|
口口①口 |----|
口①口口 |----|
口口口口 |①---|
37
③口口口 |①---|
⑤①口口 |--②-|
④口①口 |③-④-|
⑥口口② |⑤-⑥-|
38
口口口口 |----|
口③口③ |----|
口②口② |--①-|
口口①口 |②-③-|
39
口口口口 |----|
口口口口 |----|
口口口口 |----|
口口口口 |----|
40
口口口口 |----|
①②②① |--①-|
③④④③ |②---|
口口口口 |③-④-|
41
①口口① |①---|
口口口口 |----|
口口口口 |----|
口口口口 |----|
42
①②③④ |①-②-|
⑦⑥⑤口 |③-④-|
口⑤⑥⑦ |--⑤-|
④③②① |⑥-⑦-|
43
①②②① |----|
口口口口 |①-②-|
⑥⑤口口 |③-④-|
③④口③ |⑤-⑥-|
44
④口④口 |--①-|
口⑤②① |②-③-|
口口③口 |--④-|
⑥口⑥口 |⑤-⑥-|
45
⑤口口⑤ |--①-|
口口④③ |②-③-|
口⑥⑥② |④--⑤|
口口口① |--⑥-|
46
⑥⑤④口 |①②③-|
①④⑤⑥ |----|
②口口口 |--④-|
③口口口 |⑤-⑥-|
47
⑦口口口 |--①-|
口⑤口⑥ |②-③-|
①④④① |④-⑤-|
③②②③ |⑥-⑦-|
48
口③③口 |--①-|
口口口口 |②-③-|
①口口① |----|
口②②口 |----|
49
①口口口 |①-②-|
口②①④ |③-④-|
③④口口
口口口口

⑦口口口
口口⑦口
口口⑤口 |--⑤-|
口口口⑥ |⑥-⑦-|
50
口口口口 |--①-|
口①口③ |②-③-|
②③④口 |--④-|
⑥口口⑤ |⑤-⑥-|
51
口口口口 |①-②-|
①②③④ |③-④-|
⑧⑦⑥⑤ |⑤-⑥-|
口口口口 |⑦-⑧-|
52
①②③④ |①-②-|
⑧⑦⑥⑤ |③-④-|
口口口口 |⑤-⑥-|
口口口口 |⑦-⑧-|
53
①②③④ |①-②-|
口口口口 |③-④-|
口口口口 |⑤-⑥-|
⑧⑦⑥⑤ |⑦-⑧-|
54
③④⑤⑥ |①-②-|
②口口⑦ |③-④-|
①口口⑧ |⑤-⑥-|
口口口口 |⑦-⑧-|
55
口口口口 |①-②-|
口口口口 |③-④-|
⑤⑥⑦⑧ |⑤-⑥-|
④③②① |⑦-⑧-|
56
①②③④ |①-②-|
口口⑥⑤ |③-④-|
⑧⑦口口 |⑤-⑥-|
口口口口 |⑦-⑧-|
57
①①口口 |①-②-|
口②⑤口 |③-④-|
口⑥③③ |--⑤-|
口⑦④口 |⑥-⑦-|
58
口口口口 |--①-|
口①④口 |②-③-|
口⑤②⑤ |--④-|
口⑥③⑥ |⑤-⑥-|
59
口①口① |①---|
口口口口 |----|
②口口口 |----|
口口口口 |②---|
60
①口口④ |①---|
口②⑤口 |②-③-|
口口③⑥ |--④-|
口口口口 |⑤-⑥-|
61
口口口口 |①-②-|
②口口口 |③-④-|
口③⑥口 |----|
④⑤①口 |⑤-⑥-|
62
⑤口口④ |①---|
③①口② |②-③-|
④口口⑤ |--④-|
②口口③ |--⑤-|
63
口口①口 |----|
口②口口 |--①-|
③④口口 |②-③-|
⑤口口口 |④-⑤-|
64
④口口口 |--①-|
⑤口①② |②---|
口口③① |③---|
口口口口 |④-⑤-|
65
口口口口 |①---|
⑤⑥⑥⑤ |②-③-|
①④口③ |--④-|
口口②口 |⑤-⑥-|
66
①②③④ |①-②-|
口口口口 |③-④-|
口口口口 |----|
④③②① |----|
67
口口口口 |----|
③②①口 |----|
口①②③ |--①-|
口口口口 |②-③-|
68
②③③② |--①-|
口口口口 |②-③-|
⑦⑥口口 |④-⑤-|
④⑤①④ |⑥-⑦-|
69
④口④口 |--①-|
口⑤②① |②-③-|
口口③口 |--④-|
⑥口⑥口 |⑤-⑥-|
70
⑤口口⑤ |--①-|
口口④③ |②-③-|
口⑥⑥② |④--⑤|
口口口① |--⑥-|
71
⑥⑤④口 |①②③-|
①④⑤⑥ |----|
②口口口 |--④-|
③口口口 |⑤-⑥-|
72
⑦口口口 |--①-|
口⑤口⑥ |②-③-|
①④④① |④-⑤-|
③②②③ |⑥-⑦-|
73
口③③口 |--①-|
口口口口 |②-③-|
①口口① |----|
口②②口 |----|
74
①口口口 |①-②-|
口②①④ |③-④-|
③④口口
口口口口

⑦口口口
口口⑦口
口口⑤口 |--⑤-|
口口口⑥ |⑥-⑦-|
75
⑥口口⑥ |--①-|
口①⑤③ |②-③-|
②③④口 |--④-|
口口口口 |⑤-⑥-|
76
口口口口 |①-②-|
口口口口 |③-④-|
⑤⑥⑦⑧ |⑤-⑥-|
④③②① |⑦-⑧-|
77
①②③④ |①-②-|
⑧⑦⑥⑤ |③-④-|
口口口口 |⑤-⑥-|
口口口口 |⑦-⑧-|
78
①②③④ |①-②-|
口口口口 |③-④-|
口口口口 |⑤-⑥-|
⑧⑦⑥⑤ |⑦-⑧-|
79
③④⑤⑥ |①-②-|
②口口⑦ |③-④-|
①口口⑧ |⑤-⑥-|
口口口口 |⑦-⑧-|
80
口口口口 |①-②-|
口口口口 |③-④-|
⑤⑥⑦⑧ |⑤-⑥-|
④③②① |⑦-⑧-|
81
①②③④ |①-②-|
⑧⑦⑥⑤ |③-④-|
口口口口 |⑤-⑥-|
口口口口 |⑦-⑧-|
82
①②③④ |①-②-|
口口口口 |③-④-|
⑤⑥⑥⑤ |--⑤-|
口口口口 |--⑥-|
83
③口口③ |--①-|
④口口④ |--②-|
⑤口口⑤ |--③-|
①②②① |④-⑤-|
84
口口口口 |----|
口口口口 |----|
口口口口 |----|
口口口口 |----|
85
④口口④ |①-②-|
②口口② |③-④-|
③口口③ |----|
①口口① |----|

不確定度: 0

最終更新:2014年03月16日 15:35